<?xml version="1.0" standalone="no"?>
<!DOCTYPE svg PUBLIC "-//W3C//DTD SVG 1.1//EN" "http://www.w3.org/Graphics/SVG/1.1/DTD/svg11.dtd" >
<svg xmlns="http://www.w3.org/2000/svg">
<metadata></metadata>
<defs>
<font id="mustacheregular" horiz-adv-x="604" >
<font-face units-per-em="2048" ascent="1923" descent="-125" />
<missing-glyph horiz-adv-x="395" />
<glyph horiz-adv-x="0" />
<glyph horiz-adv-x="682" />
<glyph unicode=" "  horiz-adv-x="395" />
<glyph unicode="&#x09;" horiz-adv-x="395" />
<glyph unicode="&#xa0;" horiz-adv-x="395" />
<glyph unicode="!" horiz-adv-x="505" d="M113 94q0 34 26 80q9 13 35 43q15 18 34 14t30 -28q4 -16 20 -39q24 -36 4 -68q-41 -54 -102 -65q-9 -2 -20 5.5t-17 20.5q-2 6 -5.5 19.5t-4.5 17.5zM139 434q15 114 17 144q3 54 8 163t8 164q14 263 29 438q6 84 30 248q1 9 6.5 25t6.5 18q12 31 45 23q40 -10 61 -32 t25 -71q7 -55 -13 -151q0 -3 -2 -9.5t-2 -9.5q-4 -124 -8 -184q-1 -14 -4 -40t-4 -40q-2 -24 -6.5 -102t-9.5 -119q-1 -10 -5.5 -47t-6.5 -52.5t-6.5 -44.5t-10.5 -51.5t-14 -44.5q-13 -41 -35 -151q-3 -19 -6 -53t-4 -45q-1 -25 -15.5 -36t-34.5 -5q-23 6 -37.5 25.5 t-11.5 39.5z" />
<glyph unicode="&#x22;" horiz-adv-x="661" d="M137 1032q1 8 19 154q4 35 11 100.5t11 97.5q4 36 10 54q14 36 27 43q12 7 31 2q51 -14 45 -76q-16 -184 -27 -342v-35q0 -9 -0.5 -19t-1.5 -19t-8.5 -15.5t-22.5 -7.5q-35 -1 -63.5 19.5t-30.5 43.5zM315 1139q8 28 21.5 78t25.5 92.5t23 79.5q5 19 33 43q39 43 78 12 q37 -26 6 -74q-51 -76 -58 -201q-1 -12 0.5 -38.5t-0.5 -36.5q-7 -33 -26 -62q-22 -31 -53 0q-50 54 -50 107z" />
<glyph unicode="#" horiz-adv-x="1019" d="M8 745q9 36 45 33q31 -4 64 1t73.5 15t61.5 13q35 8 35 43q0 13 0.5 44.5t0.5 49t-3 43.5t-9 47q-7 24 9.5 46t40.5 22q36 0 39 -33q1 -14 6 -57t4.5 -57.5t-4.5 -57.5v-29q-2 -16 4.5 -22.5t23.5 -3.5q37 5 108.5 14t104.5 14q32 3 29 39q-1 0 -1 43l1 43h-2v82 q1 6 2 18.5t2 18.5q2 10 5 16.5t10 11.5t16 3q26 -4 39 -23q11 -16 14 -34t1 -44t-1 -36q1 -14 -4 -86q-2 -26 3.5 -32t29.5 -3q31 3 90.5 10t85.5 10t43.5 -10t15.5 -35q-3 -20 -26 -39t-43 -18q-22 5 -27 8q-55 30 -147 4q-27 -6 -27 -33q1 -16 3 -46t4 -54.5t5 -46.5 q0 -9 19 -14q4 -1 28 4q55 3 58 -29q2 -17 -12 -36t-33 -23q-5 -1 -19.5 -2.5t-23.5 -4.5t-13 -8q-4 -6 -5.5 -14.5t-1.5 -15t0.5 -18.5t0.5 -17v-162v-10q7 -54 1 -66.5t-54 -38.5q-15 -6 -21 -2t-6 15q-12 51 -6 77q7 34 8.5 71t0 83.5t-0.5 69.5q1 13 -5.5 19t-20.5 3 q-134 -15 -217 -26q-33 -4 -40.5 -14t-9.5 -44q0 -2 -2 -22.5t-2 -25t-0.5 -22t0.5 -25.5t3 -21.5t6 -24.5q4 -8 0 -33q0 -28 -8.5 -41t-28.5 -14q-23 -3 -41.5 10.5t-24.5 38.5q-2 13 2 37q6 73 15 147q2 16 -3.5 24t-23.5 5q-47 -6 -131 -14q-31 -3 -43.5 12.5t-3.5 46.5 q8 28 43 31q82 4 119 8q31 5 37.5 11.5t7.5 35.5q2 33 2 100q0 25 -5 28.5t-30 -3.5q-124 -23 -170 -29q-12 -2 -33 2q-18 3 -29 17.5t-8 31.5zM358 602q0 -21 8.5 -27.5t30.5 -3.5q33 3 99.5 10.5t99.5 10.5q41 4 48 13t7 54q-1 14 -4 55t-4 64q-3 30 -33 27 q-157 -16 -221 -45q-18 -9 -22 -33q-6 -62 -9 -125z" />
<glyph unicode="$" horiz-adv-x="788" d="M-10 393q-11 48 10 78q17 24 61 78q17 18 38.5 14t31.5 -28q14 -22 10 -58q-1 -14 -8.5 -45t-7.5 -49q3 -81 59 -123q21 -18 95 -63q14 -9 24 -7q53 8 127 25q39 12 31 51q0 9 4 17q7 15 12.5 30.5t9.5 36t6 30.5t3.5 37t2 32t1 37.5t0.5 33.5q1 16 -4 94h4 q-38 159 -51 193q-15 45 -40.5 61.5t-76.5 18.5q-28 0 -86 4q-59 3 -90 63q-19 37 -24 82.5t-2.5 70.5t11.5 81q12 86 103 170q1 1 12.5 12t14 13t12.5 10.5t15 12t13.5 9.5t16 10t16.5 7q6 1 11 9.5t5 14.5q10 78 9 94q-3 17 1 30t16 30.5t15 23.5q1 4 15.5 4.5t21.5 -2.5 q12 -4 20 -23t3 -30q-29 -55 -27 -86q3 -40 41 -63q78 -49 113 -101q18 -28 20.5 -65.5t-2.5 -65.5q0 -13 -11 -23.5t-28 -7.5q-15 3 -25 18t-7 32q12 71 -50 118q-21 17 -34 17q-57 0 -95.5 -31t-50.5 -92q-2 -8 -2 -23q-17 -73 41 -137q67 -70 111 -104q31 -23 92 -45 q95 -35 119 -154q37 -171 12 -315q-14 -76 -72 -179q-3 -6 -15.5 -27t-17.5 -34q-4 -8 -9 -16t-9.5 -14t-12 -13t-11.5 -11t-13.5 -11t-13 -10t-15 -10t-13.5 -8.5t-15.5 -9t-14.5 -8.5q-18 -10 -18 -28q4 -52 8 -82q3 -25 -12 -41.5t-41 -13.5q-37 3 -37 43v81 q0 27 -7.5 35.5t-31.5 5.5q-43 -7 -85.5 9t-67 35.5t-64.5 56.5q-77 69 -100 188z" />
<glyph unicode="%" horiz-adv-x="976" d="M125 1032q-6 38 9 71t38 36q39 3 72 -35q4 -4 19.5 -21t20.5 -24t12.5 -21t8.5 -28q4 -34 -4 -45q-41 -44 -92 -39q-31 1 -53.5 30.5t-30.5 75.5zM199 141q-20 40 8 146q18 71 31 70q1 0 2 -1l-4 4q17 36 47 99t55 116.5t47 100.5q21 44 64 133t65 133q52 103 104 205 q55 105 91 160q27 42 69 8q37 -32 46 -85q5 -30 -5 -52q-28 -62 -98 -163.5t-86 -127.5q-14 -23 -32 -73.5t-21 -57.5q-44 -105 -52 -131q-17 -45 -45 -130.5t-36 -107.5q-23 -67 -39 -98q-11 -21 -45 -89t-54 -104q-3 -6 -6 -15.5t-4.5 -12t-9 -3t-21.5 4.5q-18 6 -38 27 t-33 44zM700 317q-6 38 8.5 71t39.5 36q38 3 71 -35q4 -5 18.5 -20.5t20.5 -23t13.5 -21.5t9.5 -27q4 -36 -4 -47q-41 -44 -93 -39q-31 3 -54 31.5t-30 74.5z" />
<glyph unicode="&#x26;" horiz-adv-x="442" d="M-281 1137q8 35 35 39q50 8 140.5 26t115.5 23q61 12 187 32q30 5 91.5 14.5t92.5 14.5q6 0 15.5 3.5t13.5 4.5q26 13 39 15q43 9 53 -19q7 -30 -8 -59q-3 -6 -43 -17l-2 9q-13 -1 -37 -1t-43.5 -1t-36.5 -4q-143 -15 -221 -35q-46 -10 -98 -23.5t-117 -32t-97 -26.5 q-24 -7 -45 -4q-15 0 -26.5 14.5t-8.5 26.5zM-229 514v125h2v192q1 19 6.5 53.5t7.5 47.5q4 24 4 41q-3 37 29 45q19 4 34 -5t21 -28q7 -19 14 -57q12 -64 70 -219q10 -27 26.5 -81.5t20.5 -66.5q5 -16 17.5 -46t17.5 -46q10 -26 3 -37.5t-40 -21.5q-20 -6 -30.5 2.5 t-16.5 33.5q-5 21 -35 129q-6 29 -37 21q-31 -11 -38 -22.5t-3 -45.5q2 -12 9 -32q9 -40 5 -50.5t-38 -33.5q-19 -12 -32.5 -6.5t-14.5 28.5q-2 27 -2 80zM-166 236q-5 18 5 34.5t28 20.5q11 3 192 43q6 1 34 8.5t44 9.5q22 3 65.5 8.5t61.5 8.5q42 5 49 8q27 9 37 24 q15 21 39.5 62.5t28.5 48.5q8 16 11 23.5t2.5 21t-9.5 27.5q-12 15 -16 73q-3 41 -9.5 123t-9.5 123q0 35 6 70q3 23 10.5 29.5t34.5 9.5q-47 24 -49 24q-50 15 -39 58q8 37 58 28q138 -26 190 -188q41 -118 -16 -244q-9 -19 -27 -62t-29 -65q-13 -28 -71 -123q-1 -2 -3 -5 t-3 -5q-6 -14 -9 -31q19 0 29 2q118 27 162 35q26 4 36 -9t1 -38q-13 -43 -56 -43q-65 0 -180 -35q-9 -3 -28.5 -10t-28.5 -10q-10 -4 -21.5 -4.5t-17.5 0t-22 3.5t-19 3q-29 3 -68 -17q-46 -22 -77 -14q-30 7 -76 0q-44 -10 -180 -47q-49 -12 -60 21zM-160 713q1 -3 1 -9 t1 -10.5t4 -7.5q3 -4 7 -6t10 -4.5t8 -3.5q12 17 10 22q-3 21 -14 43q-3 11 -17 33q-3 -15 -6 -33q0 -8 -4 -24zM10 915q-5 31 5.5 45t39.5 17q42 4 53.5 -3t30.5 -46q13 -28 80 -160q2 -3 4.5 -5.5t5.5 -5t4 -3.5l4 8t3 10q0 35 -1 106t-1 107q0 37 32 37q14 0 25.5 -11 t11.5 -26q1 -19 1 -40.5t-0.5 -51.5t-0.5 -51q2 -35 10 -137q2 -17 15 -56q11 -36 -4 -62.5t-45 -37.5q-30 -10 -43 14q-13 36 -21 49q-21 38 -100 174q-2 3 -13 9q-5 -11 -4 -13q3 -14 9 -56.5t13.5 -71t20.5 -54.5q12 -23 -5 -48.5t-42 -23.5q-9 2 -19 11t-11 18 q-18 86 -35 207q-4 27 -12 78.5t-11 72.5zM442 1010q10 -35 13 -47q0 -5 -2 -16.5t-2 -16.5q12 -132 18 -195q1 -10 7 -29.5t7 -25.5q20 28 27 47q16 32 18 51q12 121 -59 217q-4 6 -27 15z" />
<glyph unicode="'" horiz-adv-x="253" d="M39 1186q8 166 14 256q2 16 23 45q28 46 76 20q41 -22 22 -73q-35 -82 -14 -205q2 -10 9 -36t7 -40q3 -26 -12 -63q-17 -33 -53 -5q-30 25 -48.5 48t-23.5 53z" />
<glyph unicode="(" horiz-adv-x="495" d="M-8 614q0 38 2 75.5t7 82.5t8 73t12.5 82t12.5 72t15 82t14 74q5 35 17.5 99.5t17.5 93.5q37 209 176 411q12 17 41.5 12.5t38.5 -26.5q23 -51 6 -84q-45 -74 -77 -199q-6 -18 -19 -73q-27 -113 -33 -154q-3 -21 -11 -67.5t-12 -73.5t-7 -66t-2 -72q2 -36 1 -107.5 t1 -107.5q12 -244 26 -366q19 -172 97 -420q8 -25 26.5 -71.5t22.5 -57.5q13 -42 -13 -78q-33 -39 -69 -12q-33 23 -55 59q-82 121 -107 168q-8 15 -14 31t-14.5 44t-10.5 34q-82 229 -90 442q-1 16 -4 49t-4 51z" />
<glyph unicode=")" horiz-adv-x="495" d="M51 1763q-16 42 10 78q33 39 70 12q33 -23 55 -59q67 -95 107 -168q8 -15 14.5 -31.5t14 -41.5t10.5 -33q82 -229 90 -445q1 -16 4 -49t4 -51q0 -44 -3.5 -93t-7.5 -86t-13 -94.5t-14 -85.5t-17.5 -94.5t-16.5 -87.5q-13 -81 -34 -192q-37 -206 -177 -410 q-12 -19 -41 -14.5t-38 26.5q-24 54 -7 84q47 77 78 199q5 16 19 74q24 102 32 153q3 23 11 68t12.5 72.5t7.5 66.5t2 72q-2 36 -1 107.5t-1 107.5q-12 244 -26 366q-19 172 -97 420q-7 22 -23.5 65t-23.5 64z" />
<glyph unicode="*" horiz-adv-x="544" d="M20 1554q0 30 27 33q49 6 96 12q31 3 15 27q-14 21 -17 45q-4 26 7.5 36.5t35.5 2.5q20 -4 25 -0.5t8 23.5q4 34 8 49q6 29 37 22q24 -5 21 -35q-2 -14 -5.5 -44t-5.5 -44q0 -10 4 -30q3 3 11.5 8t11.5 8q42 48 45 51q13 13 29 13q13 0 26 -17q6 -6 -6 -24 q-6 -8 -19.5 -24t-19.5 -24q-7 -8 -5 -13t13 -5q6 0 18.5 1t18.5 1q27 0 37 -4q10 -3 15 -18q1 -10 -22 -31t-34 -19q-3 0 -19 3.5t-24 3.5q-22 0 -25.5 -6t7.5 -25q5 -8 15.5 -24.5t15.5 -24.5q10 -18 18 -45q9 -35 -21 -47q-23 -7 -40 20q-7 13 -22.5 35t-20.5 31 q-2 2 -8 4t-9 4q-4 -12 -4 -15q0 -16 -3 -44.5t-3.5 -44t4.5 -44.5q5 -23 -13.5 -37.5t-41.5 -5.5q-5 2 -10 9.5t-5 13.5v59h-2q0 7 1 21t1 20q0 1 -6 25q-2 -2 -9 -8t-9 -9q-2 -2 -8 -11.5t-9 -12.5q-22 -29 -49 -29q-19 2 -27 11t-1 24q2 5 7 19t11.5 23t17.5 15 q10 5 19.5 14t22.5 24.5t16 19.5q4 4 4 16q-11 6 -16 4q-13 -1 -35 -4t-31 -4q-24 -4 -35 -4q-14 0 -22 6t-7 20z" />
<glyph unicode="+" horiz-adv-x="763" d="M27 748q-2 25 18 43t49 18q9 0 47.5 -2.5t46.5 0.5q43 3 51 11.5t11 53.5q2 30 5 64t7 75t6 64q1 26 15.5 40.5t35.5 12.5q42 -3 39 -59q0 -26 -2.5 -89t-1.5 -97q1 -42 10 -50t54 -6q115 7 196 7q25 0 41 -13q6 -3 10.5 -11.5t4.5 -14.5q0 -4 -7.5 -10.5t-13.5 -8.5 q-29 -6 -88.5 -17.5t-89.5 -17.5q-58 -10 -70 -10q-25 -1 -34 -12.5t-11 -36.5q-2 -18 -10 -79.5t-10 -94.5q-3 -44 -37 -41q-21 2 -32.5 14t-10.5 33l-1 60q-1 60 1 61q0 60 -3 68q-6 15 -43 11q-12 -1 -42 -5q-13 -2 -36 -6.5t-36 -6.5q-31 -3 -49.5 10.5t-19.5 41.5z" />
<glyph unicode="," horiz-adv-x="362" d="M77 -64q-2 18 1 31q1 8 5 17t10 19.5t9 16.5q65 123 35 220q-4 8 -4 28q-1 14 -1 26.5t7.5 22.5t22.5 15q20 6 43.5 -9t30.5 -40q1 -3 2 -9t2 -8q1 -15 5 -44.5t5 -45.5q3 -45 -12.5 -92t-33 -76.5t-50.5 -77.5q-23 -39 -68 -16q-7 4 -9 22z" />
<glyph unicode="-" d="M92 786q9 29 58 29h266q39 0 90 -14q37 -10 24 -53q-6 -18 -16.5 -22t-32.5 3q-48 10 -88 10q-3 0 -241 -18q-38 -3 -54 14t-6 51z" />
<glyph unicode="." horiz-adv-x="397" d="M98 240q0 40 19.5 62t54.5 22q25 0 72 -41.5t45 -61.5q-1 -30 -37.5 -63t-67.5 -33q-35 2 -60.5 35.5t-25.5 79.5z" />
<glyph unicode="/" horiz-adv-x="651" d="M50 99.5q20 107.5 34 107.5h-4q72 213 145 420q66 194 125 358q60 171 101 281q55 143 88 225q27 63 71 65q35 2 50 -33q10 -25 -1 -59q-26 -78 -92 -224t-88 -204q-14 -32 -31.5 -94t-21.5 -74q-8 -28 -24.5 -83.5t-24.5 -82.5q-70 -267 -76 -290q-17 -72 -35 -123 q-17 -44 -48.5 -132t-47.5 -132q-3 -7 -6 -22.5t-9.5 -21.5t-25.5 -14q-21 -10 -43 -7.5t-35 13.5q-21 19 -1 126.5z" />
<glyph unicode="0" horiz-adv-x="667" d="M39 758q1 20 3 64.5t4.5 81t6.5 69.5q23 164 127 309q17 27 49 37q52 17 99.5 14t86.5 -36.5t56 -92.5q5 -18 23 -75.5t24 -90.5q11 -67 15 -95t10 -83.5t3.5 -99.5t-11.5 -88q-9 -51 -26 -155t-26 -155q-17 -91 -96 -229q-37 -63 -147 -63q-19 0 -39 24q-73 72 -101 215 q-33 166 -55 305q-3 19 -4 41t-1 53.5t-1 49.5zM190 727q-3 -54 7 -264q1 -14 2 -40t2 -40q3 -30 14.5 -58t32 -62.5t28.5 -51.5q4 -10 10 -13.5t12.5 0.5t10.5 15q24 63 37 117q5 19 12.5 55t15 66t15.5 55q61 198 55 412q-4 46 -8 73q-7 44 -22 109q-13 59 -23 78 q-42 71 -84 16q-34 -48 -43 -66q-49 -102 -67 -274q-2 -21 -7 -127z" />
<glyph unicode="1" horiz-adv-x="440" d="M70 1176q0 4 4 8q86 90 129 137q10 11 24 16t24 5.5t27 0.5h25q36 0 27 -53q-2 -15 -10.5 -54.5t-10.5 -61.5t-2.5 -64t-1.5 -55q-2 -55 -6.5 -154.5t-7.5 -180.5t-4 -153q-1 -30 0.5 -65.5t3.5 -61t5.5 -66t4.5 -61.5q1 -26 4 -79t4 -80q0 -44 -37 -60q-26 -10 -63 12 q-16 10 -26 25.5t-12.5 25.5t-4.5 29t-2 21q-1 56 -3.5 154.5t-3 146t0.5 141.5q0 44 4 94.5t10.5 112.5t9.5 96q2 32 6.5 96.5t6.5 96.5q0 3 -3.5 10t-3.5 8q-12 -6 -14 -8q-8 -5 -43 -35q-35 -22 -49 -4q-26 30 -12 60z" />
<glyph unicode="2" horiz-adv-x="710" d="M72 186q-3 35 6 70q79 236 82 242q23 56 41 127.5t25.5 114.5t21.5 132q6 42 10 84.5t7.5 110t4.5 84.5q0 29 -14 49q-12 21 -28.5 21t-30.5 -19q-1 -1 -7 -12q-12 -29 -34 -27q-7 1 -12 4t-8 8t-4 8t-3 11t-2 10q-3 22 11 47t36 37q60 35 168 23q64 -3 98 -76 q31 -68 31 -115q0 -135 -70 -299q-9 -22 -57 -168q-54 -148 -72 -200q-2 -5 -10 -34.5t-11.5 -40.5t-11.5 -31.5t-18 -35.5q-1 -1 -6 -22q-6 -25 21 -25q29 -1 119 -4.5t139 -3.5q17 0 37 3t44.5 8t38.5 7q12 1 22.5 -9.5t8.5 -22.5q-3 -23 -30 -45.5t-50 -22.5q-20 2 -63 2 v-8q-23 1 -64 4.5t-75 5.5t-64 2q-18 0 -38 -2.5t-47 -7t-38 -6.5q-10 -1 -29.5 -5t-29.5 -5q-24 -3 -34 4t-11 28z" />
<glyph unicode="3" horiz-adv-x="655" d="M-37 1108q-17 70 14.5 133.5t94.5 99.5q86 51 192 23q26 -5 31 -4q31 3 61 -21q9 -9 26.5 -22.5t30 -25.5t17.5 -25q36 -102 10 -160q-6 -14 -15.5 -30t-17.5 -27t-22 -29t-20 -27q-3 -5 -11 -10.5t-10 -7.5q-20 -19 -19 -28.5t25 -24.5q93 -68 109 -82q77 -69 80 -205 q0 -128 -23 -189q-4 -8 -4 -16q4 -51 -37 -135q-73 -151 -227 -160q-13 0 -37 -4q-59 -7 -86 31q-12 15 -35 28q-21 11 -35 26t-21.5 36.5t-10.5 35t-6.5 43.5t-4.5 40q-1 4 0 10t3 13.5t3 11.5q0 2 2 12.5t3 14t3 12t4.5 12.5t6.5 10t9.5 9.5t12.5 6.5q38 20 68 2 q2 -2 6.5 -5.5t6.5 -5t6.5 -5t5.5 -5.5t4 -6.5t3 -7t1.5 -8.5t-0.5 -10q-6 -40 -47 -31q-22 6 -28.5 1t-4.5 -27q0 -1 6 -43q6 -75 71.5 -107t135.5 -2q12 4 19 13.5t9.5 17.5t5.5 22.5t5 20.5q10 30 18 94q32 173 -14 283q-10 23 -22 69.5t-19 65.5q-6 23 -19 30.5t-38 4.5 q-11 -1 -32 -6.5t-24 -6.5q-29 -11 -32 -12q-29 -12 -50 19q-17 20 4 49q4 5 32 31.5t34 48.5q20 8 36.5 19.5t32 33t21 31t20.5 38.5q3 6 5 9q36 73 10 119q-31 50 -78.5 70t-99.5 -11q-7 -5 -25 -16t-26 -17q-7 -6 -12 -12.5t-8.5 -12t-6 -14.5t-4 -13t-2 -15t-0.5 -13.5 v-15v-14.5q-2 -8 18 -23q6 -6 23 -10q32 -13 32 -45q-1 -13 -9 -22t-14.5 -12t-21.5 -9q-26 -12 -45 16q-5 11 -27 36.5t-26 43.5z" />
<glyph unicode="4" horiz-adv-x="749" d="M31.5 200.5q-2.5 37.5 15.5 69.5q9 21 23 95q7 30 31.5 154.5t41.5 191.5q56 226 82 401q8 54 30 153.5t26 118.5q8 37 18.5 46.5t42.5 3.5q51 -9 71.5 -39.5t14.5 -87.5q-5 -32 -39 -162q-7 -25 -42 -130.5t-44 -166.5q-12 -64 -29 -136.5t-38.5 -158.5t-32.5 -135 q-7 -32 -15 -93.5t-12 -82.5q-1 -16 4.5 -19.5t16.5 0.5q19 4 58 11.5t58 11.5q24 6 21 35v61h-2q1 18 3 50.5t4 59t5 50.5q4 32 14 53q6 14 18.5 17.5t24.5 -3.5q20 -10 17 -41q-3 -33 -19 -237q0 -11 5 -16t14 -3q81 14 102 19q37 8 19 49q-15 27 -31 59q-9 20 -3.5 39.5 t25.5 28.5q7 3 18 9t17.5 8.5t18.5 5t20 -2.5q61 -20 64 -104q1 -10 0 -32t0 -34q5 -36 -8 -63t-42 -57q-12 -15 -40 -15q-19 0 -58 13q-36 14 -69 0q-8 -3 -18.5 -7t-14 -4.5t-8 -4t-5 -5t-1.5 -7.5t0 -10.5t1.5 -16.5t0.5 -23q0 -1 3 -35t3 -51q-3 -40 -45 -37 q-27 2 -27 41q2 30 -2 92q-2 25 -8.5 31t-28.5 0q-7 -2 -33.5 -9.5t-40.5 -9.5q-65 -12 -129 -18q-23 -4 -41 18q-23 24 -25.5 61.5z" />
<glyph unicode="5" horiz-adv-x="735" d="M-20 991q3 48 14 84q48 181 49 187q4 13 13 21t15 10.5t21 6.5q33 8 98.5 24t98.5 24q61 12 151 34q29 5 37 2q14 -4 30 -6.5t27 -3.5t31 0t27.5 1.5t32 3.5t28.5 3q17 4 33 0.5t21 -20.5q5 -13 5.5 -28.5t-5.5 -20.5q-12 -10 -30.5 -16.5t-29.5 -2.5q-25 9 -53.5 11 t-48.5 0t-53 -7t-50 -6q-19 -1 -39.5 -5.5t-50 -14t-39.5 -12.5q-75 -19 -94 -23q-41 -8 -49 -49q-4 -18 -11.5 -52t-11.5 -51q-4 -14 1.5 -18t19.5 -2q89 9 119 6q93 -5 178 -94l43 -43q59 -56 86 -150q38 -153 49 -241q8 -81 -27 -230q-33 -145 -151 -247q-8 -7 -49 -17 q-5 -1 -26.5 -6.5t-30.5 -7t-25 1t-29 12.5q-43 4 -75 21t-54.5 47.5t-36 57.5t-30.5 71q-25 64 -25 157q-3 68 39 119q9 11 25.5 34t25.5 34q9 18 16 20q12 2 38.5 9.5t39 9t41.5 -3.5q59 -21 68 -95q5 -41 -33 -59q-36 -19 -47 16q0 1 -6 41q-6 33 -35 13 q-42 -31 -66 -123q-8 -36 7 -103q21 -88 86 -153q22 -25 69 -51q9 -5 31 4q78 39 96 151q10 74 10 156q0 144 -24 264q-18 95 -96 191q-61 72 -127 79q-9 1 -30.5 8.5t-33.5 8.5q-25 3 -55 -4q-5 -1 -42.5 -9.5t-57.5 -9.5q-27 -3 -36.5 6t-6.5 35z" />
<glyph unicode="6" horiz-adv-x="649" d="M23 705q6 49 12 102q36 270 186 430q51 51 123 35q8 0 18 -15q51 -73 44 -213q0 -28 -19 -47q-15 -17 -32 -10t-23 33q-4 13 -5 27.5t-1.5 35.5t-1.5 29q-2 14 -4.5 17t-14.5 -1q-56 -26 -74 -90q-52 -179 -47 -327q2 -31 6.5 -94t6.5 -95q1 -10 1.5 -12.5t2.5 -7.5 t6.5 -2.5t11.5 8.5q88 85 180 59q13 -3 27 4q69 22 117 -59q35 -59 31 -164.5t-44 -159.5q-10 -15 -30.5 -44t-30.5 -44q-40 -59 -110.5 -71t-129.5 26q-142 89 -202 332q-34 141 -4 318zM223.5 381.5q-1.5 -17.5 1.5 -29.5q9 -33 39 -104q8 -18 25.5 -51t25.5 -50 q12 -30 31 -32.5t33 24.5q12 24 39 41q32 24 52.5 66.5t17 95.5t-41.5 92q-45 48 -108 45q-22 7 -43 -4t-29 -20.5t-30 -40.5q-3 -4 -5 -6q-6 -9 -7.5 -26.5z" />
<glyph unicode="7" horiz-adv-x="614" d="M-71.5 1102.5q0.5 20.5 3.5 38.5q3 32 12.5 39t45.5 10q18 1 51 9.5t41 10.5q93 13 129 13q12 1 36 1t39 0.5t35.5 3t36.5 7.5q8 2 16.5 2.5t17.5 -1t15 -3t17.5 -5.5t15.5 -5q1 -1 4.5 -2.5t4.5 -3.5q5 -11 16 -31.5t16.5 -31.5t13 -33t6 -35l-4.5 -39 q-13 -47 -35.5 -139t-34.5 -136q-13 -48 -45 -158t-47 -170q-35 -131 -47 -262q-2 -13 -4 -41.5t-5.5 -49.5t-11.5 -40q-11 -31 -57 -43q-15 -3 -23 8t-10 27q-3 43 0 86q7 53 22.5 177t24.5 190q6 48 29 208t33 248q3 32 6 91.5t4 78.5q2 13 -2.5 18.5t-20.5 4.5 q-17 -3 -51 -5t-51 -5q-55 -7 -68 -50q-6 -15 -20 -22q-40 -22 -55 -68q-3 -9 -8.5 -19.5t-10 -17t-13 -18t-11.5 -16.5q-4 -6 -15.5 -7.5t-17.5 1.5q-6 2 -12.5 10.5t-6.5 15.5q-2 23 -2 72q0 11 -1 38.5t-0.5 48z" />
<glyph unicode="8" horiz-adv-x="614" d="M31 446q25 98 84 193q13 19 43 68q19 29 19 45t-23 39q-36 36 -52.5 83.5t-27.5 116.5q-12 85 37 146q73 89 159 92q9 0 28.5 -9t23.5 -10q16 -11 20 -12q32 -4 47.5 -27.5t26.5 -64.5q27 -98 18 -150q0 -148 -65 -245q-19 -27 4 -54q5 -7 15.5 -18.5t19 -22t14.5 -20.5 q13 -21 35.5 -63.5t29.5 -55.5q9 -15 19 -35q8 -24 8 -34q-3 -57 -12 -109q-9 -48 -39 -86q-11 -13 -37.5 -47t-42.5 -51q-15 -15 -66 -37q-12 -6 -33.5 -13.5t-27.5 -9.5q-76 -27 -154 45q-43 38 -65 133q-31 112 -6 213zM151.5 164q4.5 -12 26.5 -21q2 -1 15 -6t20 -6 q101 -4 145 64q31 43 35 131q1 36 -9 77.5t-17 59t-29 67.5q-43 100 -94 7q-15 -27 -72 -175q-1 -3 -1 -10.5t-1 -11.5q-2 -15 -6.5 -62t-9.5 -73q-7 -29 -2.5 -41zM180 987q13 -67 23 -104q8 -24 26 -31q4 -1 13 8.5t12 18.5q36 91 55 155q18 54 -28 107q-9 10 -17.5 7 t-13.5 -18q-1 -5 -3 -8.5t-5 -7t-4.5 -5t-6.5 -5t-6 -4.5q-45 -36 -45 -113z" />
<glyph unicode="9" horiz-adv-x="647" d="M-18 885q-17 120 36 229q21 39 34 60.5t39.5 48.5t58.5 41q60 24 108 4q34 -11 41 -51q3 -14 -6 -23q-11 -7 -25 2q-46 24 -68 18.5t-42 -45.5q-2 -5 -11.5 -18.5t-11.5 -22.5q-29 -97 -24 -190q3 -29 34 -45q32 -17 54 2q81 62 135 199q7 19 22.5 51.5t20.5 44.5 q2 7 5 20t5 19q1 2 1 7t1 7q12 27 70.5 28t77.5 -26q16 -25 8 -55q-3 -12 -30.5 -133.5t-39.5 -186.5q-6 -30 -11 -65t-10 -78t-8 -68q-29 -212 -30 -217q0 -1 -6 -80q-1 -8 -9 -58.5t-10 -78.5q-3 -46 4 -102q3 -48 -26 -60q-2 -1 -8.5 -4t-9.5 -4t-8.5 -2t-10 0.5 t-8.5 5.5q-31 31 -31 56q-4 285 0 379q15 279 41 444q0 8 -2 14q-8 -4 -10 -6q-10 -10 -28.5 -31.5t-33.5 -37.5t-31 -29q-12 -10 -27 -20.5t-25.5 -17t-31 -18t-28.5 -16.5q-19 -10 -47 -6q-68 9 -84 84q-4 20 -4 31z" />
<glyph unicode=":" horiz-adv-x="362" d="M121 543q0 67 57 67q20 0 56.5 -33.5t35.5 -50.5q-1 -25 -29 -50t-53 -25q-28 2 -47.5 28.5t-19.5 63.5zM121 952q0 68 57 68q20 0 56.5 -33.5t35.5 -50.5q-1 -25 -29 -50.5t-53 -25.5q-28 2 -47.5 28.5t-19.5 63.5z" />
<glyph unicode=";" horiz-adv-x="362" d="M77 -64q-2 18 1 31q1 8 5 17t10 19.5t9 16.5q65 123 35 220q-4 8 -4 28q-1 14 -1 26.5t7.5 22.5t22.5 15q20 6 43.5 -9t30.5 -40q1 -3 2 -9t2 -8q1 -15 5 -44.5t5 -45.5q3 -45 -12.5 -92t-33 -76.5t-50.5 -77.5q-23 -39 -68 -16q-7 4 -9 22zM121 543q0 67 57 67 q20 0 56.5 -33.5t35.5 -50.5q-1 -25 -29 -50t-53 -25q-28 2 -47.5 28.5t-19.5 63.5z" />
<glyph unicode="&#x3c;" horiz-adv-x="681" d="M129 799q0 2 8 10q76 56 115.5 84t106.5 69t126 68q6 3 19.5 9.5t19.5 9.5q2 0 7 2t7.5 2.5l7.5 1.5t8 0.5t6.5 -1.5t5.5 -4t3 -8q0 -3 -1 -11t-1 -11v-27q-4 -60 -41 -88q-21 -14 -65 -20.5t-60 -12.5q-18 -7 -36 -22t-27.5 -26t-28.5 -36l-6 -12q1 -3 12 -14 q11 -6 47 -24.5t52.5 -28t44 -26.5t48 -33.5t38.5 -35.5q16 -18 22 -37.5t-6 -37.5q-8 -9 -18.5 -11.5t-24 2.5t-22.5 9.5t-23.5 16.5t-18.5 15.5t-16 14.5q-42 38 -149.5 96.5t-153.5 103.5q-6 3 -6 13z" />
<glyph unicode="=" horiz-adv-x="892" d="M150 836q-6 54 49 57q26 1 74 1t87.5 1t75.5 4q45 2 113 -33q37 -19 24 -55q-4 -6 -10.5 -12.5t-14 -11.5t-9.5 -7q-96 17 -115 17q-73 0 -225 -4q-26 0 -36 9t-13 34zM193 664q13 36 69 36q54 -1 163 -1t163 -1q58 0 110 -18q48 -12 29 -64q-7 -21 -20 -25t-39 3 q-63 14 -107 12q-110 -7 -297 -22q-44 -5 -63.5 17t-7.5 63z" />
<glyph unicode="&#x3e;" horiz-adv-x="681" d="M133 528v21q0 19 2 29q4 63 41 86q20 14 66 21t59 11q18 6 36.5 22.5t26.5 26t27 35.5q6 6 6 15q0 8 -12 12q-16 9 -58.5 31.5t-64 35t-52.5 35.5t-52 47q-17 17 -23.5 38t6.5 38q34 34 123 -47q43 -39 149.5 -97.5t151.5 -103.5q8 -8 8 -12q-2 -4 -8 -10 q-79 -58 -116.5 -85t-105.5 -69t-126 -69q-37 -16 -41 -17q-41 -20 -43 6z" />
<glyph unicode="?" horiz-adv-x="804" d="M73.5 1191q-0.5 14 0.5 22.5t5 26.5t5 24q20 87 100 170q60 66 144 104q12 8 22 8q21 4 154 25q74 0 162 -31q58 -21 79 -86q31 -97 5 -170q-14 -36 -33 -57q-28 -37 -69 -77.5t-67 -63t-79 -66.5q-125 -104 -152 -270q-11 -79 4 -164q8 -42 -8 -60q-29 -29 -51 -20 q-28 11 -31 51q-1 14 -2 42t-2 42q-1 9 -12 47q-7 18 -20.5 53.5t-20.5 53.5q-6 14 -7 27t3.5 27t8 22t11.5 24q31 61 45 78q40 50 80 80q30 23 88.5 61t79.5 53q48 34 70 60q44 46 42.5 112.5t-48.5 110.5q-8 8 -33 16q-48 16 -127 9q-159 -14 -256 -172q-9 -15 -15 -33 t-12 -47t-8 -37q-4 -12 -4 -21q-8 -26 -27 -20q-6 1 -12 7.5t-8 12.5q-4 12 -4.5 26zM207 166q0 31 19 64.5t44 43.5q38 13 62 -8q3 -3 12 -9t13.5 -10t10 -10.5t8 -14.5t1.5 -17q0 -29 -10 -41q-48 -52 -95 -64q-29 -8 -47 10t-18 56z" />
<glyph unicode="@" horiz-adv-x="1075" d="M39 616q-3 41 2 72q7 68 11 96t16.5 79.5t31.5 90.5q56 124 136 213q10 11 28 33t33 39t31 31q48 45 102 71q12 5 26 8.5t32.5 6t27.5 4.5q15 2 32 2t29.5 -1t32 -5t29.5 -6.5t31.5 -8.5t29.5 -8q76 -20 117 -69q3 -3 17 -18t19 -20.5t15 -17.5t16 -22t11 -21 q14 -31 27 -131v-49q2 0 -1 -11.5t-6.5 -23.5t-1.5 -12q-5 -27 -7.5 -72t-12.5 -80q-4 -12 -10.5 -26.5t-11.5 -23t-16.5 -27t-14.5 -23.5q-23 -33 -78 -92q-15 -15 -43 -23q-46 -12 -70 -12q-33 0 -49 19q-27 29 -55 84q-15 26 -35 6l-47 -47q-42 -48 -98 -33 q-52 11 -66 78q-19 107 20 184q5 9 13 27t13 29t14 25.5t18 26.5q27 32 52 44.5t63 1.5q78 -21 88 -25q11 -4 23.5 -6t28.5 -3.5t25 -2.5q27 -3 35.5 -12t7.5 -35q-12 -128 -20 -197q0 -8 -7 -23t-7 -16q-6 -30 0 -33q21 -7 43 -4q12 5 28 25q31 40 37 55q5 8 7 25.5t3 21.5 q56 167 19 299q-23 78 -58 113q-55 58 -129 78q-6 1 -22.5 6t-28 7t-22.5 1q-25 -2 -82 -23q-11 -5 -28.5 -17.5t-20.5 -14.5q-24 -15 -46.5 -39.5t-35.5 -43t-33 -50.5q-17 -28 -40 -86t-36 -82q-23 -43 -31 -148q-2 -26 -2 -164v-28q16 -63 19 -68q6 -12 30 -44t31 -52 q3 -9 7.5 -18t8 -15.5t10.5 -15.5l10.5 -13.5t12.5 -13.5l12 -12t14 -13t13 -12q50 -50 111 -33q7 1 63 7q131 15 230 106q12 12 38.5 31t30.5 22q13 11 70 74q4 4 9 10t11 13.5t9 11.5q16 20 33 8q25 -14 16 -37q-21 -71 -59 -104q-18 -16 -53 -40t-50 -36q-2 -2 -86 -74 q-19 -14 -29 -16q-18 -3 -34 -11.5t-35 -23t-29 -20.5q-23 -17 -27 -17q-10 -1 -38 -4t-42 -3.5t-37 1.5t-42 8q-40 13 -170 45q-2 2 -8 2q-11 10 -49.5 41t-60 55t-34.5 56q-52 120 -55 239zM369 750q1 -8 1 -18.5t1 -14.5q3 -8 10 -24.5t10 -24.5q43 19 51 26 q20 19 37.5 46t25.5 44.5t23.5 56.5t20.5 50q8 12 0 24q-11 15 -53 18.5t-54 -11.5q-60 -78 -73 -172z" />
<glyph unicode="A" horiz-adv-x="655" d="M33 336q4 52 4 70v6q-1 15 -1 42.5t-1 41.5q0 29 4 43q9 43 12 90q0 9 10 67q2 20 9.5 57.5t9.5 55.5q4 35 31 139q2 9 12.5 47t13.5 60q3 17 7.5 36t11.5 42t10 36q5 14 14 56q3 17 21 20q20 1 35 1q31 0 47 -5q23 -9 30 -35q10 -28 29 -88q1 -5 6.5 -22.5t7.5 -30 t0 -25.5q0 -10 9 -28q8 -33 24 -70q8 -23 2 -37q-3 -7 6 -16q26 -30 37 -78q4 -17 37 -80q7 -16 20.5 -43.5t18.5 -38.5q2 -5 4 -13t2 -9q2 -6 14 -47q15 -45 15 -52q0 -14 14 -51q5 -19 15.5 -55.5t15.5 -54.5q8 -26 16 -39q12 -16 12 -35q0 -8 -2 -17q-8 -29 -34 -43 q-10 -7 -17 0q-40 34 -45 76q-1 13 -7.5 37.5t-8.5 36.5t-7.5 37t-7.5 37q-1 2 -2 6t-2 6q-13 24 -25.5 72t-19.5 65q-36 82 -49 115q-5 12 -16 27q-2 4 -8 14t-7 16q-9 28 -20 74q-5 26 -8 33q-26 57 -37 108v4q-2 1 -4.5 4t-3.5 3q-3 0 -8 -3t-5 -6q-4 -32 -4 -49 q0 -32 -8 -59q-3 -6 -4 -20.5t-4 -20.5q-6 -13 -8 -39.5t-8 -38.5q-2 -5 2 -18q8 -20 24 -11q13 6 55 6q19 0 27 -14l10 -10q12 -12 9 -19q-7 -17 -21 -20l-8 1q-8 1 -8 -1q-15 0 -23 -2q-8 -4 -25.5 -12.5t-25.5 -12.5q-19 -11 -21 -26q-1 -5 -2.5 -18.5t-4.5 -23t-9 -16.5 q-4 -4 0 -8q3 -5 3.5 -11t0 -10.5t-2 -12t-1.5 -11.5q0 -5 -1 -19.5t-0.5 -24.5t5.5 -19q5 -15 -6 -33q-11 -16 -8 -43q1 -8 -1 -23t-1 -22q1 -8 5 -23.5t5 -21.5q2 -10 2 -35q-3 -56 -57 -78q-7 -2 -13 -2q-9 0 -16 4q-19 9 -68 39q-9 9 -12 19q-17 44 -17 71q0 5 1 10v19 h-2zM180 842h6v2q-1 0 -2 1t-2 1q0 -2 -2 -4z" />
<glyph unicode="B" horiz-adv-x="677" d="M-6 59q-6 7 -6 13t6 12q13 13 41 33q2 2 28 12q27 14 28.5 20t-19.5 27q-15 18 -21 39q0 2 -2 17t-4 22q-3 12 -3 23q0 27 21 40q6 3 4.5 10.5t-10.5 10.5q-27 11 -24 47q1 6 2 19.5t2 19.5q-6 24 -6 25q4 72 8 114q3 27 12 51q11 40 11 73q0 17 -3 32q-4 18 -4 48 q0 20 2 46q4 30 0 47q-2 16 -2 33q0 28 6 59q13 60 13 96q0 13 -2 23q-1 14 12 66q4 20 4 34q-3 19 -6.5 21t-20.5 -2q-12 -4 -28 4q-26 14 -29 43q-3 17 8 25q8 5 24.5 15t24.5 15q23 10 33 27q19 34 86 63q11 6 33 14t29 11q24 11 52 10h13q24 -2 58 -10q17 -6 20 -10 q23 -27 33 -41.5t18.5 -41.5t1.5 -54q-4 -20 -8 -43t-8.5 -50.5t-7.5 -42.5q-6 -32 -23 -57q-23 -38 -35 -66q-6 -6 -6 -16q-2 -6 1 -12t7 -6q11 0 42.5 -9.5t50.5 -3.5q4 2 16 -2q7 -2 20.5 -15t26.5 -13q7 0 13.5 -4t9.5 -7.5t9 -12.5t7 -11q7 -10 33 -41q9 -12 6 -25 q-7 -23 8 -35q17 -12 21 -43q1 -10 1 -20q0 -32 -8 -59q-2 -7 -9 -37.5t-13 -46.5q-4 -12 -19 -52q-10 -20 -16 -38q-11 -28 -12 -29q-11 -20 -34.5 -57.5t-35.5 -57.5q-18 -30 -72 -88q-6 -6 -18 -16.5t-21 -19.5t-14 -19q-6 -12 -15.5 -22.5t-24 -23.5t-19.5 -18 q-9 -9 -17 -12q-21 -7 -39.5 -21.5t-28.5 -27.5t-26 -37q-12 -15 -28 -10q-14 5 -28 5q-26 0 -54 -15q-15 -8 -24 -8q-2 1 -4 1q-10 2 -22 13q-10 10 -26 30zM37 424q1 1 3 2t3 2l2 2h-4q-1 -1 -2 -3t-2 -3zM186 1110q0 -55 2 -84q0 -30 7 -70q0 -6 10 -6q9 6 16 13 q10 12 30 36.5t30 36.5q1 2 3 7.5t3 7.5q4 20 22 60.5t21 64.5q1 7 10.5 19t11.5 19q2 8 1.5 23.5t0.5 24.5q0 1 2.5 7.5t1.5 8.5q-15 35 -28 43q-11 9 -22 9q-8 0 -15 -5q-15 -15 -60 -27q-28 -7 -34 -30q-10 -47 -13 -82v-14v-28q2 -26 2 -34h-2zM209 377q5 -58 6 -70h-4 q1 -12 2 -35t2 -34q-1 -15 9 -20q4 -2 8 -2q6 0 14 5q16 16 18 19q10 18 39 47q18 14 25 26q84 125 100 152q4 9 16 30t18.5 37t10.5 33q9 27 14 37q27 52 25 84q6 12 6 26v8q0 8 -1 12q-1 6 -6.5 25.5t-6.5 22.5q-15 62 -80 74q-9 0 -21 4q-28 4 -36 12q-6 6 -13 6 q-6 0 -14 -4q-20 -10 -66 -26q-65 -21 -66 -89q0 -6 1 -12q1 -16 2 -47t2 -47q1 -19 1 -46q0 -31 -2 -73q-2 -50 -2 -82q0 -19 1 -32q0 -3 -1 -9.5t-1 -9.5q-2 -4 -2 -10t2 -12z" />
<glyph unicode="C" horiz-adv-x="649" d="M37 516q9 111 14 156q3 17 10.5 51.5t10.5 52.5q30 144 43 193q30 119 69 180q3 4 11.5 22t15.5 25q7 9 21.5 26.5t21.5 26.5q35 47 90 66q24 8 42 8q10 0 16 -2q22 -6 42 -31q14 -15 62 -80q3 -5 12 -32q10 -39 8 -54q-1 -6 -1 -13q0 -19 4 -51q3 -25 3 -44 q0 -15 -2 -25q-1 -3 -1 -8t-1 -8q-2 -9 -12 -13t-18 3q-2 2 -8.5 8t-9.5 9.5t-7.5 9.5t-6.5 11.5t-3 12.5q-1 3 -7 37t-10 51q-8 60 -26 80q0 1 -1 3t-1 3q-1 2 -2.5 8t-4.5 9t-8 3q-9 -2 -18 -20q-4 -9 -13.5 -27.5t-13.5 -27.5q-50 -97 -59 -117q-33 -70 -41 -135 q-2 -19 -3 -40t-1.5 -46t-1.5 -39q-8 -86 -10 -131q-4 -20 -4 -35q1 -10 3 -33.5t4.5 -40.5t6.5 -33q6 -18 0 -36q-3 -24 2 -43q18 -74 31 -101q1 -2 5 -10.5t7 -11.5q17 -21 20 -41q0 -4 13 -23q8 -13 24 -6q24 14 37 29q15 19 45 53q1 2 4 6t4 6q8 17 27 46.5t23 35.5 q5 11 8 12q13 9 30 35q3 6 10 5t9 -7q3 -11 3 -17q0 -3 -1 -5q-7 -32 -21 -54q-16 -32 -59 -108q-8 -16 -22 -37q-30 -40 -97 -76q-45 -22 -85 -22q-24 0 -46 8q-53 14 -78 47q-28 32 -34 55q0 1 -1 3t-1 3q-13 18 -27.5 54t-18.5 45q-3 8 -7 22.5t-5 18.5q-14 66 -14 145z M135 616q2 -4 2 -10q4 -4 6 -4h1t3 4q-1 3 -2 10.5t-2 10.5l-2 2q-4 0 -4 -2q0 -7 -2 -11z" />
<glyph unicode="D" horiz-adv-x="616" d="M20 979q-1 2 -1 8q0 14 4 49q0 5 8 34t2 46q5 12 14 38t14 38q7 22 2 37q-7 27 23 53q1 1 43 31q9 6 23 6q21 0 67 16q11 3 45 8q4 0 7 1q14 0 27 -4q16 -4 39 -14.5t30 -12.5q2 -1 16 -10q2 -1 16.5 -14t22.5 -19q11 -8 22.5 -26.5t18.5 -24.5q2 -1 8 -6.5t8.5 -8 l7.5 -7.5t7.5 -8t5.5 -8t4 -10l6 -12q8 -7 13.5 -15t9 -17.5t5.5 -16.5t5 -19.5t4 -17.5q17 -56 18 -109q0 -23 -4 -46q-3 -16 -3 -51t-3 -52q-6 -23 -10 -100q0 -17 -4 -25q-6 -15 -15 -50.5t-18 -53.5q-6 -16 -13.5 -45t-9.5 -37q-4 -23 -10 -31q-21 -21 -24 -55 q-7 -38 -31 -62q-13 -11 -25 -39q-15 -35 -45 -59q-31 -27 -43 -51q-5 -12 -14.5 -23.5t-17 -18t-22 -18t-20.5 -16.5q-7 -6 -22.5 -17.5t-22.5 -17.5q-23 -20 -51 -28q-9 -2 -17 -2q-26 0 -44 22q-11 17 -29 31q-24 20 -24 50v7q0 15 6 27q9 30 6 61q0 23 6 41q9 28 9 70 q0 30 -5 67q-2 10 -3 22t-1.5 26t-1.5 22q0 3 1 8t1 8q-6 17 -8.5 35t-3.5 41.5t-2 34.5v29q3 33 3 56q0 12 -1 21q-1 22 -1 30t2 30t3 31v49q-2 13 -6.5 44.5t-6.5 49.5zM182 297q0 -27 2 -37q0 -10 10 -13q3 -1 7 -1q6 0 12 4q12 6 20 14q8 9 24 27.5t24 27.5q2 2 4 9 t4 10q4 8 10.5 24t13 29t13.5 23q22 29 24 51q3 43 41 59q14 7 4 17q-21 24 -4 47q4 4 15 33q9 39 12 71q1 10 8.5 35.5t5.5 40.5q4 14 6.5 30.5t3 27.5t1.5 31.5t1 29.5q0 21 15 31q11 8 11 17q0 7 -7 13q-12 12 -13.5 29.5t1.5 30.5q1 9 1 18q0 40 -16 61q-2 2 -2.5 5 t-0.5 8t-1 8q-18 56 -53 86q-15 15 -51 39q-19 14 -29 14q-7 1 -16 1q-17 0 -41 -3q-25 0 -29 -22q-6 -60 -6 -62q-1 0 -1 -49l1 -49q0 -11 -1.5 -31t-1.5 -36t3 -31q2 -3 -4 -15v-12q12 -16 8 -55v-74q1 -10 1 -19q0 -34 -9 -63q-9 -23 -9 -45q0 -20 7 -39q5 -14 0 -37 q-8 -39 -8 -119q0 -11 -2 -41.5t-1 -48.5q3 -28 -4 -59q-5 -22 -5 -33q0 -5 1 -8z" />
<glyph unicode="E" horiz-adv-x="661" d="M51 293q-3 24 -3 48q0 31 5 60v39q-2 18 -2 34q0 30 8 56q6 17 2 39q-3 18 -3 34q0 22 5 42q1 6 3.5 19.5t3.5 19.5q0 23 8 39q12 19 12 53q-3 23 6 47q4 16 4 27v143q0 7 4 19q2 8 7.5 24.5t7.5 24.5q1 4 2.5 10.5t2.5 11t3.5 10t5.5 9.5q10 12 6 35q-1 7 -4 24t-4 27 q-4 30 4 45q17 25 28 29q10 4 23 0q16 -6 33 4q12 9 23 9q15 0 28 -15q19 -22 43 -25h17q13 7 49 2q21 0 24 2q6 4 14 5.5t13.5 1.5t16 -0.5t14.5 -0.5q18 -2 51 6q24 5 49 -4q9 -4 26.5 -10t26.5 -10q10 -5 15 -13q9 -5 4 -10q-3 -6 -4.5 -18t-6 -21t-14.5 -14 q-18 -11 -28 0q-14 13 -33.5 19.5t-37.5 6.5t-38 -1q-9 0 -94 -11q-9 -2 -24.5 -7.5t-20.5 -6.5q-28 -11 -41 -43q-23 -66 -25 -111q-3 -47 -12 -94q-7 -30 -7 -60q0 -10 1 -20v-39q0 -21 22 -24q13 -2 37 10q17 6 36 6q26 0 54 -12q16 -5 23 -27q3 -17 -8 -28 q-25 -22 -45 -11q-19 6 -35 -2q-9 -3 -39 -8q-4 -1 -12 -1t-11 -1q-37 -6 -37 -45q0 -3 5 -18q3 -26 -7 -56q-8 -25 -6 -39q3 -31 2.5 -42.5t-5 -41.5t-5.5 -41q-2 -21 -2 -37q0 -51 18 -79q11 -15 23 -15h59v-2q23 1 70 4.5t70 4.5h9h9.5t9 -0.5t9 -1.5t8 -3.5t8.5 -5.5 q2 -2 6 -2q30 6 57 15q7 0 15 8q12 10 32 -2q17 -10 17 -29q-3 -26 -23 -37q-31 -17 -56 -17q-14 0 -26 5q-5 4 -11 4t-14 -2t-13 -2q-3 1 -11.5 -1.5t-11.5 -2.5q-62 -4 -182 -8q-54 -3 -90 -27q-15 -12 -29 -12l-27 10q-4 4 -24 12q-24 8 -41 35q-22 36 -25 78zM131 586 q3 -2 6.5 -6t5.5 -5q1 0 5 3t4 7t-2 7t-6 3q-2 0 -3 -1q-2 0 -10 -8zM135 473l6 -6l4 6q-4 4 -6 4z" />
<glyph unicode="F" horiz-adv-x="620" d="M31 606v21q4 86 6 127q5 70 12 90q12 27 -4 59q-10 24 4 35q20 20 10 43q-3 10 0 16q4 9 4 22q0 21 -10 54q-2 20 -2.5 24.5t2 24.5t2.5 25q1 11 4 33.5t4 33.5q4 37 19 52q8 8 8 16q-4 16 0.5 30t13 30t11.5 26q9 42 53 42q6 0 12 -1h60v-2q14 0 20 2q5 3 17 3 q7 0 17 -1q26 -3 34 -4.5t34 -7.5t35 -8q18 -5 52 -19.5t40 -17.5q11 -4 15 -8q31 -28 65 -39q22 -9 25 -33q0 -19 -16 -25q-22 -10 -43 -10q-16 0 -31 6q-46 15 -88 41q-27 19 -61.5 22t-61.5 -3q-4 -4 -12.5 -10.5t-14 -12.5t-8.5 -12q-39 -84 -44 -135q0 -17 -3 -23 q-14 -26 -14 -65q0 -21 4 -46q5 -32 5 -65q0 -45 -9 -90q-10 -74 -11 -86q-2 -12 7.5 -22t20.5 -9q31 7 71 21q35 12 57 0q13 -7 39 2q15 4 53 8q25 3 53 -15q33 -20 9 -38q-3 -3 -11.5 -8.5t-11.5 -8.5q-4 -4 -4 -12q1 -2 5.5 -6.5t5.5 -7t-3 -7.5q-11 -8 -26 -4 q-26 6 -51 7t-52 -3t-44.5 -8t-47.5 -12q-23 -8 -37 -10q-15 -1 -24 -10t-9 -23v-8q0 -26 -4 -74q-3 -33 -4 -58q0 -18 2 -32q3 0 2 -37l-2 -37q0 -27 2 -41q3 -1 1.5 -54t-1.5 -54q1 -34 0 -61t1 -61t7 -61q1 -6 1 -12q0 -31 -23 -53q-9 -8 -24 -8q-7 -1 -16 1 q-27 6 -44 25q-41 39 -41 79v9q1 39 2 41.5t-3.5 43t-4.5 44.5q-4 32 -4.5 64t4.5 63q2 10 2.5 31.5t1.5 28.5q0 13 1 41t1 41q4 13 2 18q-7 9 -9 19t-1 22.5t0 17.5q0 24 -4 74z" />
<glyph unicode="G" horiz-adv-x="854" d="M-4 389q-1 16 -1 33q0 72 21 149q12 49 21 99q1 3 2 8.5t2 7.5q5 8 9 17t6.5 19.5t4 17.5t4 20t3.5 18q13 60 32 105q3 8 14.5 33.5t16.5 39.5q8 34 43 91q21 32 33 59q7 17 23 46t22 42q25 52 59 86q3 3 11 15t14 16q22 27 53 55q27 22 68 43q7 7 16 4q19 0 31 12 q14 15 36 15h7q44 -5 102 -33q44 -21 47 -80q4 -82 4 -121q0 -2 -6 -14q0 -2 -2 -2.5t-4 0.5q-28 28 -33 59q-7 32 -10 58q-6 26 -27 32q-50 13 -65 13h-2q-32 0 -49 -23q-31 -31 -43 -51q-8 -15 -18.5 -29.5t-26 -34.5t-21.5 -28q-3 -5 -10 -17t-8 -14q-5 -15 -8 -18 q-11 -15 -22 -35t-17.5 -34t-18 -39t-16.5 -36q-5 -10 -17.5 -42.5t-21.5 -49.5q-5 -7 -8 -20q-10 -70 -35 -125q-1 -2 -1 -8t-1 -9t-1.5 -13t-2.5 -15q-14 -31 -21 -84q-1 -8 -7.5 -35t-6.5 -43q0 -7 -4 -23q-14 -69 -14 -137v-88q0 -6 5 -9.5t9 -0.5q41 29 47 33 q12 9 41.5 32.5t52 39t45.5 26.5q17 6 31 27q20 23 43 40q30 20 47 52q3 6 41 49q4 4 3 10.5t-7 9.5q-6 0 -8 2q-14 2 -22.5 11.5t-11.5 19t-7 27.5q-2 14 5 22.5t17 5.5q17 -6 52 2q40 5 53 5q15 -1 28 -1q27 0 48 5q9 5 14 2q10 -3 51 2h6q32 0 51 -27q6 -9 6 -16 q0 -6 -4 -11q-3 -7 -7 -12t-7 -8t-9.5 -6t-9.5 -4.5t-11.5 -4t-10.5 -3.5q-4 2 -6 2q-7 12 -33 12q-25 0 -69 -19q-6 -2 -7 -11t5 -11q14 -6 18 -33q7 -33 -2 -59q-8 -36 -8 -78q0 -30 -10 -72q-5 -20 -5 -51q-4 -74 -12 -100q-2 -6 -2 -39q0 -57 -4 -74q-1 -5 0 -16.5 t0 -16.5q-8 -63 -14 -98q-6 -31 -35 -41q-5 -2 -12.5 -3t-16.5 -1.5t-14 -1.5q-5 0 -9.5 4.5t-4.5 11.5q-9 40 -9 60q2 28 6.5 85t6.5 85q3 52 6 102q0 12 2 18q4 20 6.5 42t4.5 52t3 42q4 20 4 30q0 4 3 29t-5 29q-4 -5 -16.5 -18t-18.5 -21q-22 -25 -41 -35 q-11 -6 -22.5 -15t-19.5 -16.5t-20.5 -20t-19.5 -18.5q-40 -36 -67 -49q-1 -1 -8 -4.5t-11 -7.5q-22 -22 -38 -29q-11 -5 -11 -6q-7 -11 -17 -18.5t-24 -15t-20 -11.5q-19 -11 -43 -11q-22 0 -49 9q-1 1 -11 6q-30 15 -38 25.5t-15 46.5q-11 41 -14 98z" />
<glyph unicode="H" horiz-adv-x="862" d="M69 1119.5q0 13.5 3 43.5t4 43q2 45 18 131q1 3 2 9.5t2 9.5q7 34 35 37q22 3 35 26q6 8 15 8q5 0 10 -2q34 -23 38 -49q0 -12 7 -26q13 -27 -2 -47q-5 -10 -5 -27q-4 -39 -14 -57q-6 -12 -2 -27q8 -90 14 -137q0 -3 -1 -11t-1 -12q-2 -41 -6 -127q-3 -11 0 -22 q1 -23 8 -29t31 -6q53 0 166 33q33 11 39 45q1 11 5 29t6 32.5t1 28.5q0 6 3 18t3 15q0 5 6.5 32t2.5 43q-4 7 2 13q11 19 0 39q-8 14 6 28q10 12 10 33q-3 21 4 45q1 10 3 21.5t5 25t4 21.5q3 15 16.5 23.5t28.5 4.5q21 -5 35.5 -22t11.5 -37q-1 -15 3 -39.5t4 -28.5 q3 -32 0 -63q-2 -18 -2 -105q0 -66 -5 -92q-4 -27 16.5 -40.5t43.5 -4.5q3 2 10 4t10 4q8 4 16.5 6t18.5 2t15.5 -0.5t18.5 -2.5t17 -3q10 -2 16 -16q4 -10 4 -18q0 -4 -1 -7q-8 -38 -35 -43q-16 -3 -35 -14q-17 -10 -33 -10q-14 0 -26 -6q-43 -15 -43 -62q2 -33 2 -196 q0 -13 4 -41q0 -1 1.5 -9.5t0.5 -13.5q-3 -28 -4 -36.5t2 -35.5l4 -36q3 -28 6 -80.5t4 -69.5q1 -16 11 -82q6 -36 6 -39q4 -18 14 -20q17 -3 12 -21q-1 -6 -4 -14.5t-4 -11.5q-2 -17 -22 -27q-31 -17 -46.5 -14.5t-37.5 30.5q-11 16 -11 17q-2 5 -13 28t-15.5 32.5t-10 28 t-6.5 34.5q-4 30 -28 133q-8 33 -8 61q0 9 1 17q1 6 1 14q0 43 -19 125q-9 32 -6 45q2 4 2 14q-6 25 -7 73.5t-3 66.5q0 13 -6 22q-13 31 -41 17q-39 -16 -138 -29q-24 -2 -53 -31q-3 -3 -8 -26q-1 -11 -1 -24q0 -39 11 -93q1 -3 3 -10t3 -13t0 -10q-2 -12 -2 -30 q1 -19 3 -43q6 -48 5 -62q0 -21 10 -59t11 -44q9 -39 9 -63q0 -8 -1 -14q-1 -12 -0.5 -19t3 -20.5t3.5 -20.5q1 -9 2 -28.5t2 -28.5q1 -8 4.5 -24.5t4.5 -24.5q2 -7 2 -13q0 -28 -35 -30q-3 -2 -7 -2q-3 0 -7 1q-9 2 -12.5 1.5t-11 4t-10.5 6t-10 7.5t-9.5 8t-9 8.5 t-9.5 8.5q-7 5 -21 24q-11 11 -8 31q1 6 1 14q0 25 -7 76q-4 23 -12.5 71.5t-12.5 71.5q-18 133 -18 224q0 25 -2 37q-5 17 -7 37.5t-3 45t-2 37.5q-2 10 2 23q5 19 5 49q0 15 -1 33q-8 65 -8 126q0 42 4 83v18q-3 31 -3 44.5zM193 938l4 -2v2l-2 2z" />
<glyph unicode="I" horiz-adv-x="352" d="M57 295q1 2 1.5 5.5t1 9t1.5 9.5v46q-1 11 -1 20q0 31 10 47q2 4 2 17q-7 34 6 57q2 3 0.5 9t-4.5 7q-15 15 -15 51q0 13 -1 36t-1 36q0 38 2 45q9 46 9 119q-3 23 6 45t0 43q-11 23 2 49q12 21 12 47q-3 12 10 25q16 19 6 41q-4 13 -4 25q0 37 39 71q7 11 25 6 q24 -7 57 4q9 4 20 4q13 0 27 -6q15 -6 15 -22q-2 -8 -6 -34t-9 -43t-14 -32q-4 -4 -4 -8q0 -17 -3 -33.5t-9.5 -40t-8.5 -32.5q-5 -45 -12 -64q-5 -18 -2 -31q3 -11 3 -25q0 -34 -15 -89q-4 -25 -2 -37q8 -33 8 -99q-2 -35 -2 -100v-27q0 -11 -1.5 -34t-1 -40t4.5 -34 q2 -16 2 -23t-2.5 -24t-3.5 -25q0 -7 -5.5 -12.5t-13.5 -5.5q-7 -1 -30 -15q-18 -14 -37 -14q-22 0 -45 19q-17 15 -17 57zM123 616h4l-2 5z" />
<glyph unicode="J" horiz-adv-x="612" d="M-147 63q0 3 5 7t9 4q3 2 10 0.5t8 -4.5q6 -7 15 -21t12 -18q11 -15 29 -15h39q17 0 32 15q40 40 99 61q85 40 104 117q23 94 23 121q0 6 2 10q9 17 13 37.5t4.5 39t0.5 39.5v40v39h-2l6 147q0 6 -4 18q-2 12 -8 38t-8 38q-2 11 2 27q0 3 1.5 12t0.5 14q-5 25 -6 54v31 v34q1 36 0 56q-4 47 -4 83q0 52 8 80q4 15 2 23v96q1 19 -6 23t-29 -2q-9 -3 -27.5 -9.5t-27.5 -9.5q-11 -3 -20 -3q-29 0 -48 28q-8 11 -8 21q0 17 26 32q18 6 21 8q20 6 59 19q103 36 179 41q62 4 98 26q18 12 48 12q14 0 30 -2q33 -6 42 -26q3 -6 3 -11q0 -14 -17 -28 q-47 -41 -90 -45q-21 -1 -24.5 -5t-3.5 -22v-123q0 -6 1 -19.5t1 -19.5q-1 -7 -3.5 -21.5t-3.5 -21.5q0 -2 -1 -4.5t-1 -3.5q1 -10 4.5 -30.5t4.5 -30.5q1 -8 -3 -28.5t-1 -31.5q8 -22 12 -44.5t4 -50t-0.5 -42t-3.5 -50t-4 -44.5q-3 -35 -14.5 -99.5t-14.5 -90.5 q-4 -13 -2 -23q1 -18 1 -34q0 -73 -15 -120q-28 -87 -58 -127q-30 -47 -32 -77q-2 -20 -33 -60q-10 -11 -31 -33.5t-31 -33.5q-14 -17 -39 -23q-33 -4 -77 -31q-64 -38 -80 -45q-14 -6 -62 -20q-10 -3 -22 -3q-25 0 -58 11q-17 8 -28 31q-11 17 -11 44q0 13 3 29z" />
<glyph unicode="K" horiz-adv-x="792" d="M20 139q2 17 7.5 52t7.5 53q10 143 14 170q1 8 2.5 26.5t2.5 29t4.5 25.5t9.5 27q2 4 1.5 15.5t0.5 17.5q8 54 16 166q0 16 4 22q12 25 12 91q0 112 25 188q11 34 11 62q0 9 -1 18q-1 10 8 47q6 19 21.5 63t23.5 68q6 15 20.5 19.5t27.5 -3.5q24 -16 36 -28q9 -9 9 -17 q0 -13 -4 -37q-23 -122 -23 -155q0 -11 2 -15q0 -5 5 -7t9 1t14 11.5t15.5 13.5t12 13.5t10.5 17.5q6 12 23 25.5t20 17.5q8 9 19.5 30t12.5 23q5 5 15 10q23 12 30 35q7 21 33 43q1 1 5.5 3.5t7.5 5.5t4 7q10 23 26 29q12 4 32 5q6 0 13 -1q26 -4 23 -24q0 -20 -8 -31 q-12 -19 -52 -64q-7 -8 -19.5 -20.5t-22.5 -23.5t-17 -23q-3 -12 -14 -19l-10 -6t-9 -6t-8 -8t-6.5 -7.5t-7 -8.5t-6 -8.5t-6 -9.5t-5.5 -9q-12 -22 -43 -49q-11 -9 -21.5 -19.5t-25 -27.5t-20.5 -23q-8 -8 -4 -25q0 -19 20 -36q86 -66 127 -101q7 -6 20.5 -19.5t20.5 -19.5 q1 -1 4.5 -7t7.5 -7q15 -12 28.5 -29t21 -30t19 -36.5t17.5 -33.5q9 -17 27 -46.5t25 -41.5q9 -18 28.5 -52.5t28.5 -52.5q3 -6 8 -26q2 -4 5 -13.5t5 -13.5q51 -99 60 -119q3 -7 3 -12q0 -13 -14 -22q-1 -1 -11 -7.5t-15 -11.5q-16 -13 -35 -10q-48 3 -48 39q0 6 1 12t1 12 q0 35 -30 58q-38 30 -38 69q0 5 1 9q3 3 -2 8q-16 9 -28.5 41t-26.5 43q-5 5 -9 11.5t-8 17.5t-5 14q-31 71 -103 172q-19 27 -61 49q-32 22 -45.5 18t-20.5 -45q-10 -62 -10 -75q0 -39 -12 -76q-13 -31 -13 -62v-12q0 -84 3 -125v-14h-3q-1 -36 -3 -107.5t-3 -107.5 q-4 -56 -8 -86q-5 -22 -8 -27q-9 -21 -33 -24q-9 0 -28 -2.5t-29 -2.5h-1q-2 0 -5 2q-5 3 -5 5q4 18 -6 20q-5 1 -20.5 12t-26.5 9h-12q-17 9 -19 14q0 7 -6 31q-5 20 -5 35q0 18 11 36zM76 436l4 -6h4q-1 1 -2 3q-1 3 -2 3h-4z" />
<glyph unicode="L" horiz-adv-x="532" d="M27 125q4 16 4 25q17 101 20 221v43q0 27 6 51q11 42 11 67q-1 13 6 35t6 33q-2 13 -2 26q0 23 6 46q4 8 4 14q-1 8 -1 18q0 20 4 48q6 44 5 63q0 15 2 21q7 32 10.5 93t4.5 75q1 12 4 33t4 32t2 34t2 34q3 57 12 120q2 18 9.5 50.5t9.5 44.5q3 24 22 30q29 12 45 17 q35 5 41 6q5 1 9 1q17 0 33 -14q20 -18 20 -44q0 -58 -11 -140q-19 -183 -20 -231q0 -11 -1 -23t-2.5 -26t-2.5 -23q-1 -6 -2 -19.5t-2 -19.5q0 -15 -4 -43q-5 -25 -5 -32q3 -34 -6 -62q-4 -12 -4 -18q2 -22 1.5 -32t-3.5 -30.5t-4 -30.5q-4 -80 -14 -108q-1 -4 -1 -12.5 t-1 -12.5v-32q-7 -21 -11.5 -60t-5.5 -45q-5 -21 -22 -74q-16 -56 -23 -127q-1 -17 5.5 -24.5t19.5 -5.5q19 0 55 4v-4l80 10q27 3 50 3q29 0 52 -5q4 -1 14 -1t15 -1q17 0 25 -4q18 -7 21 -19q1 -3 1 -8q0 -11 -6 -26q-12 -29 -41 -29q-9 0 -29 4q-32 6 -79 6t-111 -6 q-74 -8 -109 -14q-6 -1 -12 -1q-24 0 -41 11q-5 3 -15.5 9t-15.5 9q-35 18 -35 58q0 6 1 12zM98 414q0 -2 2 -4h2l-2 6zM135 545q0 -15 4 -39q0 -2 4 -6q1 1 2.5 2l3 2t1.5 2q0 10 1 30.5t1 30.5q-17 -7 -17 -22zM137 463h4v4h-4v-4zM147 590q5 -15 5 -21q6 18 6 21 q2 0 -2 4q-1 2 -2 2q-2 0 -4.5 -2.5t-2.5 -3.5zM229 1247l2 -4h5q8 14 8 29v6q-2 2 -4 2l-2 -2q-3 -17 -9 -31z" />
<glyph unicode="M" horiz-adv-x="950" d="M10 1183v11q0 12 1 26q1 22 1 31q1 20 15.5 30t33.5 7q2 -1 6.5 -2t6.5 -2q6 -1 22 -7t25 -7q31 -6 45 -29q6 -11 22 -37t26 -45.5t17 -38.5q1 -3 18.5 -51t24.5 -74q5 -17 21 -41q12 -24 14 -39q2 -11 10 -13t17 5q9 9 10 11q9 13 33.5 42.5t34.5 47.5q5 7 16 27t20 33 t19 24q11 14 33 46.5t37 49.5q27 33 75 104q23 31 45 43q48 26 70 64q18 26 59 33q3 1 5 1q9 0 20 -8q23 -20 47 -4q13 7 23 -6q22 -25 22 -53q-6 -102 -31 -213q0 -1 -2 -13t-4 -18q-2 -8 -4.5 -38.5t-9.5 -47.5q-4 -6 -4 -26q0 -84 -2 -127q-2 -35 -10 -115 q-21 -156 -54 -260q-6 -19 -9 -55.5t-5 -47.5q-8 -51 -20 -153q-6 -54 -9 -101q-3 -23 -11.5 -31.5t-31.5 -9.5q-25 0 -45 -20q-5 -7 -15 -9q-5 -1 -11 -1h-7q-8 2 -18 0q-26 26 -24 47q8 67 10 98q6 54 6 55q0 24 2.5 52t5.5 47.5t8.5 52.5t7.5 49q15 111 33 225 q1 6 3 18.5t3 18.5q1 4 4.5 12.5t4.5 12.5q9 62 43 158q4 12 4 18v6q1 34 11 93q12 64 13 83q4 59 31 156q4 14 4 45q0 4 -4 8q-6 0 -8 -2q-4 0 -4 -2q-10 -8 -38.5 -30.5t-43.5 -36.5q-29 -26 -47 -60q-2 -5 -29 -37q-58 -78 -59 -80q-26 -35 -84 -131q-3 -3 -6 -12 q-28 -71 -117 -160q-21 -25 -43 0q-17 17 -31 49q-16 46 -27 68q-3 8 -14 12q-8 0 -12 -16q-2 -6 -2 -19q1 -9 2 -27.5t2 -27.5h-4q4 -28 4 -45q0 -6 -1 -18.5t-1 -18.5q-1 -6 -3 -22t-2 -22.5t1 -22.5q2 -14 1.5 -38t0.5 -38q0 -12 2 -37t2 -37q0 -23 -4 -63 q-3 -17 -11.5 -51t-11.5 -52q-5 -24 -20 -66.5t-17 -49.5q-9 -27 -34 -33q-10 -3 -18 -3q-24 0 -36 27q-20 42 -20 86q0 15 2 29q9 50 9 107q0 51 -7 108q-1 7 -4 36.5t-4 42t-2 36t0 43.5t4 39q1 20 1 27.5t-2 29t-3 29.5q-1 30 -7 120q-5 76 -4 124v16q0 35 -4 49 q-4 16 -4 32zM731 676l2 -2q2 0 2 4h-2z" />
<glyph unicode="N" horiz-adv-x="849" d="M45 590q1 17 3 48t3 48h-2q4 100 8 152q0 12 2 18q8 29 2 39v4q4 21 11.5 64t11.5 65q2 12 9 36t9 38q9 43 52 59q32 16 45 29q12 12 28 2q17 -7 17 -25q-4 -20 -4 -28q0 -51 24 -111q6 -17 18.5 -49t18.5 -49q44 -130 88 -191q11 -16 19 -33.5t16.5 -42.5t13.5 -36 q2 -5 6.5 -16.5t6.5 -16.5q7 -15 21.5 -45.5t21.5 -46.5q21 -47 38 -80q3 -6 9 -6q4 0 10 6q18 44 18 81v11q-4 26 2 39q4 4 4 8q-1 5 -1 11q0 21 9 55q9 36 9 58v7q-2 5 4 21q1 6 6 26t6.5 26.5t5 27t2.5 27.5t0 28q0 4 5 29q3 17 8 52t8 52q2 13 7 37.5t7 36.5q8 36 8 53 q1 32 15 129q6 41 18 78q4 8 6 10q7 18 20 18q6 0 13 -4q9 -5 26.5 -16.5t20.5 -13.5l6 -3t7 -3t6 0q6 1 13 -1t10.5 -3.5t11.5 -6.5t10 -6q8 -5 8 -12q0 -5 -4 -10q-3 -3 -13.5 -15t-17.5 -18q-16 -12 -16 -27q-1 -21 -29 -88q-8 -12 -8 -22v-10q0 -27 -14 -52 q-3 -6 -3 -12q3 -10 3 -35q0 -15 -1 -35q-2 -41 -2 -61v-10q0 -1 -6 -31q-2 -11 -7.5 -32.5t-6.5 -27.5q-10 -36 -20 -88q-1 -6 -5 -20.5t-5.5 -21t-3 -21t0.5 -21.5q1 -21 1 -29t-2 -29.5t-3 -29.5q-3 -45 -12 -92q-3 -17 -8 -94v-18q3 -22 2.5 -29.5t-7 -27.5t-8.5 -27 q-5 -10 -6 -11q-10 -5 -26 -20.5t-21 -18.5q-20 -12 -41 -6.5t-31 27.5q-3 5 -20 45q-31 77 -51 119q-1 5 -15 24q-9 13 -22 47q-8 33 -19 46q-22 35 -61 137q-8 20 -12 28q-9 21 -19 41q-6 18 -8 21q-10 14 -25.5 43t-25.5 43l-2 2q-2 2 -10 6q-4 -4 -4 -6q0 -5 -1.5 -16.5 t-1.5 -16.5q0 -7 0.5 -21.5t1 -23t-1.5 -21t-6 -22.5q-2 -2 -2 -8q4 -10 5 -21t0.5 -18t-2 -21.5t-1.5 -19.5q-1 -12 4 -59q1 -6 4 -21t2.5 -26t-6.5 -21v-12q4 -32 4 -62q0 -42 -8 -80v-24q0 -17 -2 -25q-5 -13 -14 -63q-3 -23 -18 -33q-2 -1 -10 -8.5t-13 -9.5 q-2 -2 -31 -19h-12q-13 2 -27.5 17t-21.5 18q-10 7 -10 20q-2 27 -2 78q-5 35 -5 41v92q0 9 -1 28.5t-1 29.5q0 5 1.5 23.5t0.5 27.5q-1 11 -7 29t-7 22q-2 8 -2 29zM78 311q1 0 2 -1t2 -1q0 2 2 4h-4q0 -2 -2 -2zM584 516h2q2 0 2 2z" />
<glyph unicode="O" horiz-adv-x="681" d="M41 770q0 55 16 96q13 29 17 47q13 57 45 97q16 18 31 45q21 46 53 84q3 4 10 12t11 12.5t10.5 10t13.5 8.5q4 2 18 16q41 48 133 59q4 0 9 1l9 -1q9 -1 18.5 -5t15 -7t17 -10.5t15.5 -9.5q17 -12 23 -21q15 -19 39.5 -56t29.5 -44q9 -13 7 -19q-1 -12 12 -43 q10 -25 10 -36q2 -22 5 -68.5t5 -69.5q2 -28 13 -73q3 -16 3 -31q0 -38 -18 -70q-6 -12 -4 -18q7 -17 7 -39t-3 -34.5t-10 -37.5q-29 -103 -55 -141q-9 -18 -15 -18q-7 -1 -12 -3.5t-8.5 -7.5t-4.5 -7t-4 -11t-3 -10q-21 -59 -60 -82q-8 -5 -21.5 -22.5t-21.5 -22.5 q-3 -1 -25 -8.5t-30 -14.5q-15 -13 -31 -16q-7 -1 -13 -1q-8 0 -16 2q-12 4 -30 13q-29 16 -37 31q-31 44 -41 61q-1 2 -4 9.5t-6 9.5q-10 8 -17.5 20.5t-10 19.5t-6.5 25.5t-5 22.5q-5 21 -19 45q-34 59 -57 135q-2 5 -2.5 12t-0.5 11.5t-1 5.5q2 14 2 20q-7 36 -7 86 q0 19 1 41zM203 588q3 -80 30 -150q11 -28 5 -43q-2 -9 6 -26q21 -31 39 -52q7 -11 20 -10q6 0 14 2q5 1 12.5 6.5t10.5 6.5q18 8 41 38t39 39q3 1 10 21q19 42 23 55q2 6 11.5 16.5t10.5 20.5q13 56 35 102q18 39 18 105q-3 43 -6 84q-1 11 -2 32.5t-2 30.5q2 13 2 28 q0 47 -16 120q-8 37 -39 100q-11 24 -39 28h-7q-23 0 -36 -18q-6 -8 -18 -28.5t-21 -30.5q-7 -7 -12.5 -16.5t-9.5 -16.5t-8.5 -18t-6.5 -16.5t-6.5 -19t-5.5 -17.5q-3 -7 -13.5 -33.5t-14.5 -38.5t-8 -33t-3 -39q0 -1 -1 -4t-1 -4q-7 -27 -20.5 -82t-20.5 -82 q-10 -45 -10 -57z" />
<glyph unicode="P" horiz-adv-x="659" d="M-41 645q4 25 25 33q8 3 24.5 10t24.5 10q11 4 21 9.5t22 13.5l18 12q29 18 29 55q0 76 4 113q1 46 1 63.5t-2 64.5t-3 65v71q0 4 -1 12t-1 11q-3 27 -33 35q-7 2 -45 18q-26 13 -20 35q2 8 10 20q43 43 110 84q35 20 45 25q28 15 93 25q108 -5 110 -5h5q60 0 132 -51 q54 -33 60 -82q0 -7 10 -37q0 -3 2.5 -8.5t1.5 -7.5q-4 -17 -4.5 -22.5t4.5 -22.5t6 -23q2 -11 1.5 -21t-1.5 -20q-16 -54 -26 -75q-4 -8 -31 -86q-25 -76 -111 -133q-24 -16 -69 -47t-68 -46q-25 -18 -18 -38q2 -11 -2 -31q-9 -100 -17 -135q-4 -17 -6.5 -53t-7.5 -56 q-6 -23 -6 -76q5 -141 12 -186q7 -37 -10 -57q-7 -7 -14 -27.5t-15 -28.5q-20 -20 -39 -20q-21 0 -41 26q-26 33 -26 70v8q8 88 8 161q0 53 -4 99q-2 23 -2 138q0 3 -2 25t-4 34q-3 21 -31 12q-9 -3 -27.5 -10t-27.5 -10q-18 -6 -35 8q-29 20 -29 49zM285 891q0 -6 4 -14 q3 -11 13 -15q4 -1 7 -1q7 0 13 5q95 63 133 148q22 48 27 110q2 28 2 54q0 31 -3 59q0 12 -2 18q-6 43 -28 60t-76 18h-27q-17 -1 -20.5 -7t2.5 -21q8 -12 8 -21q0 -6 -1 -37t-2 -43t-4 -34.5t-9 -39.5q-7 -21 -15 -68.5t-16 -72.5q-3 -14 -5 -32q-1 -11 -1 -21v-12 q1 -15 0 -33z" />
<glyph unicode="Q" horiz-adv-x="823" d="M-6 570v11q0 7 1 13q2 11 7 22q2 4 2 11q-4 14 -5 28t1.5 29.5t4.5 25.5t7.5 29t7.5 27l7 14q-1 35 15.5 97t18.5 88q0 4 5 24q14 31 38.5 92.5t38.5 92.5q73 166 74 169q41 101 154 189q25 19 43.5 19t44.5 -19q39 -25 51 -66q2 -2 4.5 -10.5t5.5 -11.5q13 -14 22.5 -34 t12 -30.5t8.5 -38.5q3 -26 21 -41q22 -18 41 -61q34 -83 39 -152q3 -43 43 -151q11 -29 13 -41.5t1 -44.5q1 -21 -12 -65t-15 -56q-8 -27 -10 -45q-3 -38 -31 -168q-6 -30 -6 -31q0 -33 19 -45q3 -3 16 -14.5t19 -16.5t17.5 -12.5t22.5 -11.5q32 -16 56 -37q30 -24 30 -63 q0 -13 -4 -29q-3 -12 -11 -20.5t-17 -8.5q-37 0 -45 21q-9 26 -31.5 50t-36.5 34t-51 35q-29 19 -43 -7q-5 -10 -15.5 -30.5t-18.5 -36.5t-13 -31q-17 -54 -76 -117q-9 -11 -21.5 -22.5t-21.5 -19.5t-24 -20.5t-23 -19.5q-30 -24 -65 -24q-25 0 -52 12q-10 5 -45 25 q-3 1 -14 7t-17 7q-62 5 -92 74q-49 104 -55 215q-5 58 -25 125q-1 4 -6 21t-6.5 24t-3.5 21zM190 352q0 -6 4 -44.5t3 -59.5q0 -50 51 -88q8 -5 39 -23q8 -3 16 -3q11 0 21 7q60 47 98 99q18 26 34 54t36.5 69l27.5 55q15 26 -10 51q-50 45 -59 55q-23 20 -43 47 q-9 15 -9 39q0 10 9.5 16.5t23.5 6.5q22 -2 47 -27q15 -15 39 -43q22 -22 41 -16q4 1 7 3t4.5 6.5l2 6t1.5 8.5l1 7q31 134 46 213q4 20 8 28q5 19 5 41q0 39 -16 84q-2 6 -12 36.5t-13.5 43t-7.5 36t-3 42.5q1 4 -4 24q-4 10 -13 36t-17.5 43.5t-19.5 33.5 q-7 10 -15.5 29.5t-12.5 25.5q-5 10 -23 37q-3 5 -11 5t-13 -5q-5 -6 -15.5 -21t-17.5 -22q-46 -41 -74 -119q-26 -79 -39 -110q-34 -65 -49 -174q-30 -186 -33 -221q-4 -39 -10 -56q-19 -59 -19 -138q0 -19 1 -40q-7 -70 -7 -78z" />
<glyph unicode="R" horiz-adv-x="776" d="M70 1165v17q0 32 2 48q2 21 8 77q1 8 7.5 29.5t4.5 35.5q-1 2 0 4.5t3 5.5t3 4q41 41 49 48q19 17 43 17q9 0 19 -3q12 -4 39 -4q22 3 48 3q15 0 32 -1q22 0 43 -6q12 -3 34 -9.5t33 -9.5q10 -3 25 -10q14 -6 55 -29q21 -10 25 -16q39 -58 49 -78q10 -31 24 -53 q25 -38 26 -101q0 -9 -1 -18q-7 -49 -7 -74q0 -8 1 -14q3 -22 -14 -45q-5 -6 -12.5 -19.5t-10.5 -17.5q-32 -62 -82 -96q-4 -3 -30 -24t-42 -29q-12 -8 -45.5 -35t-54.5 -37q-6 -6 -10 -8q-17 -14 -8 -35q6 -19 16 -35q10 -14 17.5 -28.5t16 -37.5t11.5 -30q11 -22 16 -37 q16 -32 17 -37q1 -16 12.5 -41.5t13.5 -36.5q1 -5 17 -26q27 -35 41 -58q37 -52 96 -108q4 -4 8 -4q19 -9 21 -15q4 -9 -4 -28q-4 -9 -11.5 -27t-11.5 -27q-5 -8 -14 -10t-17 4q-5 5 -17 14.5t-20 17t-14 15.5q-4 5 -84 97q-6 6 -14 17.5t-10 14.5t-8 12.5t-9 12.5 q-22 22 -37 59q-7 17 -20.5 45.5t-23.5 52t-15 46.5q-1 6 -16 26q-3 3 -8.5 2.5t-6.5 -4.5q-10 -25 -10 -32v-152q0 -37 -4 -119q-3 -21 -18 -39q-10 -20 -3 -34t6.5 -38t0.5 -40v-8q-9 -29 -35 -52q-45 4 -68 27q-14 14 -14 37q0 18 0.5 50.5t0.5 59t-1 50.5q0 16 0.5 46.5 t0.5 50t-1 47t-4 50.5q-2 18 -2 105q1 23 1 45q0 81 -9 153q-3 38 -3 72q0 88 -16 139q-6 22 -7.5 63t-2.5 48q0 20 -2 30q-8 34 -8 78zM219 963q0 -13 2 -19q5 -22 15.5 -68t15.5 -69q3 -11 13 -15q5 -2 11 -3l9 2q24 8 34 18q15 16 48.5 38.5t46.5 33.5q68 56 106 143 q4 9 7 18.5t5 17t3 18.5t2 17q0 3 1 7q0 6 -1 12q-1 12 -1 16.5t-1.5 18.5t-1.5 17t-2.5 18.5t-2.5 17.5q-1 3 -5 9.5t-5 9.5q-2 4 -13.5 27.5t-15.5 37.5q-14 45 -59 51q-29 3 -51 17q-7 5 -20 5q-6 0 -13 -1q-15 -3 -27 -6q-59 -21 -69 -68q-1 -3 -3 -8t-3 -8 q-23 -39 -23 -84v-103h-2v-118z" />
<glyph unicode="S" horiz-adv-x="720" d="M0 328q-2 9 -2 17q0 28 20 40q30 44 105 66q7 1 57 18q23 9 49 2q72 -22 99 -70q2 -2 5 -7t5 -7q16 -19 4 -37q-2 -5 -7.5 -17t-8.5 -18q-12 -15 -31 -2q-22 11 -27 27q-1 2 -4 6t-4 6q-13 31 -50 31q-9 0 -20 -2q-30 -6 -71 -43q-19 -18 -20 -46q0 -13 5 -28 q15 -63 72 -133q54 -63 131 -63q24 5 31 10q63 48 82 98q21 42 33 60q59 87 71 192q1 11 4.5 31.5t5 36.5t1.5 32q0 32 -27 88q-11 18 -43 64q-4 11 -10 14q-23 17 -56 68q-27 39 -53 65q-15 13 -43 60q-38 71 -82 123q-39 47 -86 155q-6 12 -6 27q-7 65 -23 102 q-12 29 5 56q10 10 10 22q1 7 2.5 12.5t5.5 12.5t6 10t8 11t7 9q24 39 69 72q24 17 49 17q18 0 37 -9q35 -13 47 -20q79 -36 152 -131q33 -44 33 -109q0 -3 -4 -7.5t-7 -4.5q-4 0 -16 8q-2 2 -6 10q-5 9 -11 18t-14.5 19t-13.5 15.5t-16.5 17.5t-14.5 16q-11 13 -26 25.5 t-24.5 19t-31.5 20t-28 17.5q-15 5 -21 2q-34 -13 -45 -22q-27 -16 -27 -43q0 -11 5 -25q5 -19 2 -39q-3 -13 -3 -26q0 -42 39 -72q1 -1 3.5 -3t3.5 -3q16 -9 30.5 -20.5t28.5 -28.5t21.5 -26t24 -32.5t20.5 -29.5q44 -52 65 -82q61 -86 86 -154q2 -5 8 -16.5t8 -16.5 q21 -43 23 -47q49 -129 63 -198q5 -27 5 -99q-2 -16 -2 -51q-1 -7 -3.5 -21.5t-3.5 -21.5q-4 -23 0 -35q4 -11 4 -21q0 -25 -26 -38q-26 -14 -45 -51q-4 -6 -11 -18.5t-12 -20t-12.5 -17t-15.5 -16.5q-2 -1 -8.5 -7.5t-10.5 -8.5q-9 -4 -19 -11.5t-16 -13t-16 -16.5t-14 -15 q-40 -35 -50 -45q-26 -26 -86 -30q-12 -2 -24.5 -2t-24.5 2q-23 1 -33.5 2.5t-27 8.5t-29.5 21q-29 16 -55.5 43t-42 49t-39.5 58q-32 55 -39 137q0 4 -1 13.5t-1 13.5z" />
<glyph unicode="T" horiz-adv-x="608" d="M-80 1323q0 14 8 21.5t21 3.5q32 -7 110 -7q19 0 27 -2q26 -6 52 -6l52 6h11q12 1 16 -1.5t10 -14.5q1 -4 5 -9.5t4 -6.5l4 -2q4 0 8 4v14q3 22 24 25q1 0 2 1t2 1h9q27 0 74.5 5t74.5 5h8q72 0 95 -6q10 -2 28 -2q22 -2 65 -6.5t64 -6.5q25 -2 54 -28q15 -15 15 -28 t-15 -30q-8 -8 -19 -8q-14 -4 -43 -4h-18q-22 6 -63 8.5t-60 7.5q-34 8 -56 -6q-51 -30 -63 -71q-1 -2 -2 -7.5t-2 -7.5q-7 -11 -12 -23t-8.5 -27.5t-5 -23.5t-4 -28t-3.5 -25q-2 -16 -7 -44t-7 -40q-4 -28 -4 -41q4 -36 -6 -57q-4 -10 -9 -51q-6 -63 -20 -113 q-10 -29 -4 -57q4 -14 4 -30q0 -20 -6 -44q-11 -40 -11 -90q1 -28 -2.5 -59t-10.5 -70.5t-9 -58.5q-1 -2 -3 -6.5t-3 -6.5q-1 -3 -4.5 -10.5t-3.5 -11.5q-4 -30 0 -45q6 -19 6 -39q0 -16 -4 -31q-9 -45 -9 -82q0 -22 3 -41q4 -24 -4 -36t-33 -21q-20 -9 -37 -9q-29 0 -49 25 q-13 17 -15 29q0 45 2 68q1 12 4.5 36.5t4.5 38.5q1 4 1 12t0.5 13.5t3 12t5.5 11.5q4 8 4 15q-6 21 0.5 57t5.5 49v11q-7 21 -7 55q0 23 3 51q4 56 16 176q0 4 1.5 17t0.5 20q0 24 11 61q4 11 8 37q2 7 5 23.5t5 23.5q0 3 2 8.5t2 8.5q2 49 6 143q3 80 21 156q3 12 11 36 t11 36t8 47q3 25 -22 28q-16 4 -23 4q-15 -2 -34 13q-12 12 -15 -2q-6 -14 -18 -11q-16 11 -17 11q-25 11 -41 -2q-22 -16 -43 -5q-29 13 -55 7t-45 10q-10 7 -20 10q-23 8 -23 33v6zM33 1300l12 -6l4 11q-2 0 -6 1t-6 1q-1 0 -1.5 -1.5l-1 -3t-1.5 -2.5z" />
<glyph unicode="U" horiz-adv-x="712" d="M8 629q3 19 12 37q13 38 9 57q0 12 2 18q8 22 12 47t6 58t4 47q11 78 13 86q15 44 10 61q-4 4 0 11q10 27 26 93.5t31 100.5q2 2 2 4q13 35 30 46.5t54 11.5q4 0 12 -4q6 -2 18.5 -7.5t18.5 -7.5q28 -14 23 -43q-4 -19 -13.5 -54t-13.5 -54q-8 -40 -8 -62q0 -51 -20 -80 q-18 -26 -18 -57q0 -12 3 -25t3.5 -28t-0.5 -24t-3.5 -27t-3.5 -25q-5 -61 -5 -105q0 -33 3 -55q2 -6 8.5 -9t9.5 1q44 48 52 66q23 47 26 51q7 12 15 35q15 44 32 65q4 4 7 13.5t4 11.5q6 18 11 28t15.5 21t26.5 16q15 6 12 23q-2 12 -2 24q0 36 21 64q1 1 6 28q8 56 30 84 q7 14 7 15q0 16 10.5 44.5t11.5 43.5q2 31 49 47q4 2 8 2q10 0 21 -10q16 -14 16 -31v-8l-28 -168q0 -6 -2 -10q-4 -9 -7 -19.5t-4.5 -18t-2.5 -21t-1 -19v-22v-19.5q-1 -8 -3 -25.5t-3 -25.5q-5 -44 -16 -115q-8 -41 -4 -55q6 -13 -4 -47q-6 -35 -6 -52q0 -8 1 -12v-8 q-3 -15 -3 -37q0 -37 8 -94q2 -18 3 -39t1.5 -46.5t1.5 -39.5q0 -13 -2 -19q-3 -10 6 -36q5 -12 20 -56q10 -26 -16 -45q-38 -27 -43 -30q-8 -5 -16 -5q-10 0 -19 9q-2 2 -5.5 7.5t-6 9t-6.5 5.5q-15 13 -15 45q1 11 2 34t2 34v12q0 38 -5 98q-6 70 -7 97q-1 41 -1 75 q0 85 7 127q2 8 2 25q-1 5 1 14t1 17t-8 14q-14 -7 -28 -39q-15 -27 -27 -57q-40 -94 -109 -152q-9 -6 -28 -30q-41 -58 -95 -76q-7 -2 -14.5 -5.5t-17.5 -9t-15 -8.5q-15 -5 -28 -5q-20 0 -35 13q-20 13 -23 35q-8 50 -8 100q0 25 2 50z" />
<glyph unicode="V" horiz-adv-x="755" d="M96 1057v59q-1 17 -1 35q0 42 5 90v33q0 13 4 33q4 12 17 16q18 6 41 6q32 0 41 -29q20 -62 22 -75q22 -97 25 -183q0 -16 2 -24q3 -27 6 -82t6 -82q6 -93 6 -94q0 -17 1 -49t1 -47q0 -9 -2 -13q-2 -8 -3 -17.5t-1 -16.5t2 -18.5t3 -16.5t4 -18t4 -17q8 -25 8 -46 q0 -10 -2 -18q-8 -30 4 -49q4 -6 0 -22q0 -9 4 -25q0 -2 3.5 -2.5t4.5 0.5q6 3 6 10l25 72q37 129 88 231q27 56 41 74q7 8 16 33q6 22 16 44.5t24 50.5t20 42q15 38 30 78q22 51 35 67q4 4 8 17q4 32 25 45q4 4 8 16q8 51 43 109q32 49 43 98q3 16 10 33q4 8 15 12q3 1 7 1 q8 0 19 -4q17 -6 21 -15q6 -6 6 -11t-4 -10q-13 -31 -21 -39q-19 -17 -26 -43q-4 -14 -11 -28.5t-16 -32.5t-14 -29q-3 -10 -17 -43q-15 -30 -22 -51q-32 -72 -35 -80q-23 -64 -49 -112q-8 -15 -20.5 -45.5t-14.5 -34.5q-12 -28 -22 -43q-13 -19 -15 -35q0 -8 -14 -31 q-1 -1 -7 -10t-8 -12.5t-6 -11t-5.5 -14t-2.5 -13.5q0 -9 -8 -25q-19 -34 -39 -98q-9 -27 -18 -51q-6 -19 -18.5 -58t-18.5 -59q0 -2 -1 -5t-1 -5q-8 -55 -27 -82q-1 -2 -2 -6.5t-2 -6.5q-2 -22 -7.5 -45.5t-14.5 -53.5t-13 -44q-2 -14 -10 -33q-2 -7 -6 -20.5t-6 -20.5 q0 -1 -3 -8t-4 -8.5t-4 -6.5t-7 -7t-9 -4q-3 -1 -5.5 -4.5t-5 -9t-3.5 -7.5q-11 -14 -26 -14q-5 0 -11 2q-26 7 -29 28q-2 10 -2 35q1 13 1 28q0 53 -9 120q-1 16 -23 155q-4 20 -4 31q-2 35 -6 103.5t-6 103.5q-2 30 -7 92t-7 92q-1 12 -2 38t-2 38q-2 18 -2.5 51t-2.5 51 q-6 32 -10 101z" />
<glyph unicode="W" horiz-adv-x="1163" d="M23 1006q-4 38 -4 66q0 34 6 54q7 24 28 27q13 0 25 6q19 14 43 0q30 -15 35 -39q8 -43 9 -69q0 -14 -3 -23q-1 -12 0 -17t5 -16t5 -16q2 -7 7.5 -22t8.5 -24t5.5 -21.5t3.5 -24.5q0 -5 4 -13q7 -12 12.5 -27t7.5 -23t6.5 -30t5.5 -26q3 -18 9 -33q1 -4 5 -15t4.5 -14.5 t2 -15t-1.5 -16.5q-3 -3 2 -12q8 -17 20 -19q14 0 17 23q2 6 2 20q0 46 22 70q5 5 9 18q1 6 2 17.5t2 17.5q7 21 -2 39q-12 21 4 41q13 16 10 43q0 4 4 20q4 22 8 31q1 8 4 22t4 19q5 25 5 29v8q0 33 22 51q13 13 6 23q-5 15 2 32l3 6t3 7t0 6q-2 16 2 31.5t11 34t10 28.5 q7 32 14 82q3 19 23 29q11 5 22 5q12 0 25 -6q24 -12 27 -38q10 -68 12 -82q0 -5 1 -16.5t1 -16.5q-1 -5 4 -29q20 -47 25 -92q8 -75 28 -119q5 -10 15 -55q2 -10 8 -34t9.5 -41.5t4.5 -35.5q0 -12 8 -36q16 -36 16 -60q0 -5 -1 -10q0 -3 2 -12t2 -13q4 -15 8 -49 q6 -29 20 -149q2 -18 17 -111q2 -22 22 -119q0 -8 8 -8q7 0 11 4q12 12 12 21q2 7 7.5 18.5t8.5 22t2 20.5q0 6 9 19q18 18 18 53q0 32 21 59q12 15 12 39q0 15 4 21q12 18 20 55.5t11 46.5q2 5 5.5 15t6 16t7.5 14t11 14q7 7 7 19q-3 28 14 55q12 21 4 39q-7 10 2 23 q6 17 18.5 50.5t18.5 51.5q6 12 6 29q2 8 4 25.5t2 19.5q8 54 27 73q2 11 7.5 32.5t6.5 27.5q2 12 5 33.5t5 33.5q5 27 37 27q2 -2 8 -2q29 -3 35 -11q4 -5 4 -19q0 -8 -2 -19q-4 -26 -8 -41q-4 -14 -18 -12q-6 1 -8 -1.5t1 -7.5q0 -3 3 -8.5t4 -7.5v-10q-4 -4 -7 -9 t-4.5 -8.5t-2.5 -9.5t-1 -9v-10.5v-8.5q0 -3 -2.5 -11t-3.5 -10q-1 -6 -4 -18.5t-4 -18.5q0 -27 -14 -47q-10 -15 -7 -27q2 -17 -6 -45q-9 -24 -12 -49q-6 -50 -39 -86q-8 -8 -2 -20q0 -1 1 -3t1 -3q2 -9 0 -18t-6.5 -19.5t-5.5 -16.5q-1 -4 -2 -11.5t-2 -12.5t-4 -11 t-9 -10q-4 -2 -8.5 -15t-13.5 -15q-2 -2 -2.5 -9t0.5 -12q10 -33 -10 -59q-4 -8 -4 -13q-3 -17 -18.5 -62t-16.5 -71q0 -6 -8 -22q-21 -44 -33 -90q-4 -13 -8.5 -26.5t-11 -30.5t-9.5 -27q-34 -108 -39 -154q-3 -36 -24 -63q-4 -4 -10 -16t-9 -17q-5 -8 -14 -8h-3 q-12 2 -18 12l-6 18q0 11 -2 13q-8 3 -13 8.5t-6 10.5t-2.5 14t-2.5 12q-8 28 -8 49q0 9 1 16q3 11 0 21q-11 24 -18.5 71.5t-9.5 55.5q-1 7 -1.5 33t-6.5 40q-2 5 -13 70q-16 111 -22 172q-4 43 -10 62q-1 4 -3.5 12t-3.5 12q-7 17 -7 33.5t7 32.5q10 24 -10 41 q-14 7 -18 30q-2 10 -11.5 54.5t-13.5 68.5q-4 38 -10.5 78.5t-16.5 92.5t-14 77q0 7 -6 10q-1 2 -5 2t-5 -2q-8 -8 -8 -14q-15 -62 -27 -123q-11 -58 -27 -92q-3 -5 -4 -12t-1 -15.5t-1 -13.5q0 -4 1 -12.5t1 -12.5q-2 -49 -20 -118q-5 -21 -10.5 -61.5t-6.5 -47.5 q-5 -16 -8 -18q-24 -13 -24 -46q0 -9 2 -20q5 -19 5 -38q0 -22 -7 -44q-4 -15 -9.5 -47t-9.5 -47q-8 -35 -20 -51q-4 -4 -4 -11q-2 -15 -15 -39t-16 -36q0 -2 -12 -25t-39 -20q-29 0 -39 26q-4 7 -8 29q-2 7 -6.5 21.5t-6.5 21.5q-5 18 -4 20q2 15 0 31t-6.5 35.5t-5.5 30.5 q-3 14 -10.5 45t-10.5 49q-10 57 -10 70q0 30 -12 92q-1 6 -5 41t-11 53q5 26 -15 53q2 14 -0.5 27.5t-8 30t-7.5 24.5l-1 8q0 8 1 8v13q-1 23 -5 59q-6 46 -7 62zM100 922q1 -1 2 -3.5t2 -3.5h5q0 6 -3 9zM264 602q1 -1 1.5 -3.5t1 -3.5t1.5 -1q3 0 11 4q-1 1 -2 3 q-2 3 -3 3q-6 0 -10 -2zM367 799h2l2 2q0 2 -4 2v-4z" />
<glyph unicode="X" horiz-adv-x="753" d="M-20 186q8 25 24 50q32 44 70 106q2 2 24 53q5 18 13.5 34t24 41.5t18.5 31.5q6 10 14 30q32 76 49 97q8 12 21.5 35.5t15.5 27.5q33 64 61 99q15 19 15 40q0 11 -4 23q-37 97 -58 160q-4 13 -14.5 34t-13.5 29q-11 34 -11 68v10q0 13 7 37q3 20 24 27q4 2 12 2 q13 -2 29 -16t16 -25q0 -13 8 -34.5t9 -33.5q6 -29 16 -63q2 -6 5 -18.5t5 -18.5q6 -18 15 -33q3 -10 10 -25q15 -28 21 -28t26 26q13 18 39.5 53t40.5 52q25 35 29 41q66 102 116 164q3 4 13 24q2 2 14 27q9 14 25 14q2 -1 3 -1q18 -2 25 -19q15 -33 39 -80q6 -13 6 -23 q0 -8 -4 -14q-25 -46 -45 -76q-7 -10 -47 -55q-23 -32 -24 -43q0 -1 -15 -23q-29 -37 -67 -108q-10 -23 -21 -37q-10 -17 -30 -47t-27 -41q-2 -2 -13 -25q-10 -20 -4 -37q4 -11 17 -49.5t22 -58.5q7 -16 20.5 -50.5t20.5 -50.5q2 -6 2.5 -16.5t1.5 -13.5q5 -37 6 -39 q5 -11 15.5 -39t20 -47t22.5 -35q4 -6 8 -18q6 -12 -2 -23q-6 -6 -14 -18q-12 -19 -18.5 -21t-28.5 4q-16 6 -19 19q-6 29 -17 64t-19.5 58.5t-23.5 63.5t-22 59q-5 14 -47 111q0 4 -4 8q-3 6 -9 6.5t-11 -6.5q-6 -8 -19.5 -26.5t-23 -32.5t-15.5 -29q-10 -23 -29 -39 q-19 -19 -22 -26q-32 -52 -51 -86q-15 -29 -56 -66q-16 -12 -26 -22q-39 -32 -76 -97q-6 -12 -16.5 -22t-16 -14t-23 -14.5t-20.5 -12.5q-10 0 -14 4q-21 24 -21 47q0 8 3 16zM317 625q0 -2 5 -7q3 0 6 3q10 6 17.5 15.5t15.5 23.5t12 20v4q0 2 -4 6h-7q-34 -38 -45 -65z " />
<glyph unicode="Y" horiz-adv-x="593" d="M6 1294q-6 10 -6 19.5t6 17.5q17 28 49 25q3 0 9 -0.5t10.5 -0.5t7.5 1q9 5 18 5.5t23 -2.5t18 -3q82 -8 109 -88q0 -7 4 -11q10 -15 17 -32.5t13 -40.5t11 -35q5 -14 7.5 -42.5t6.5 -41.5q3 -10 8.5 -29.5t8.5 -29.5l6 -7q10 5 12 7q2 3 9 15t9 19q28 74 74 152 q25 44 56 104q22 46 22 95v18q0 26 29 26q6 0 14 -1q25 -6 35 -29q2 -7 4 -22t2 -17q-2 -41 -37 -113q-14 -26 -43.5 -78.5t-44.5 -78.5q-1 -2 -8 -23q-2 -4 -4 -13t-4 -13q-14 -27 -39 -81t-39 -81q-12 -23 -21 -35q-29 -47 -34 -88q-2 -21 -5.5 -44.5t-9 -53.5t-8.5 -46 q0 -3 -1 -10.5t-1 -11.5q-10 -143 -10 -170q0 -26 -1 -76t-1 -76q5 -79 8 -88q5 -23 -23 -41q-1 0 -4 -1t-4 -1q-5 -1 -16 -6.5t-15.5 -5.5t-15.5 4q-29 19 -29 47q0 4 2 4q4 23 5.5 51t1 50.5t0.5 50.5q0 16 -0.5 46.5t-0.5 49.5t1 45.5t4 48.5q2 4 2 13q-3 19 -4 39t1 43 t3 36.5t5 42.5t5 39q2 16 2 31q0 37 -12 70q-9 22 -26 64.5t-31.5 76.5t-30.5 64q-39 85 -52 108q-13 24 -29.5 71t-27.5 68z" />
<glyph unicode="Z" horiz-adv-x="608" d="M12 217q-2 10 -2 19q0 19 10 32q11 19 34 57t34 56q60 102 94 184q15 36 46.5 103t35.5 75q44 87 68 131q8 16 18 33t22 37.5t19 32.5q7 11 21 43q4 12 -1 20.5t-16 6.5q-50 -8 -73 -21q-9 -6 -39 -16q-23 -6 -39 15.5t-8 49.5q4 16 14 19q12 3 38 13t46 15t39 4 q9 0 100 11q26 0 33 -9q10 -12 35 -12q15 0 28.5 -13t16.5 -30q1 -3 1 -7q0 -6 -3 -15q-30 -73 -37 -86q-16 -36 -49.5 -104.5t-48.5 -104.5q-11 -26 -24.5 -54t-31 -62.5t-26.5 -51.5q-1 -2 -3.5 -6.5t-3.5 -6.5q-12 -30 -26.5 -59.5t-36 -70.5t-29.5 -56q-4 -8 -9.5 -16.5 t-12.5 -19t-10 -15.5q-9 -13 -5 -21q2 -5 17 -10h8q10 3 34.5 7.5t44 10.5t36.5 17q10 5 22 8q48 12 88 39q29 17 51 -14q2 -3 5.5 -10.5t5.5 -10.5q8 -16 -2 -32q-1 -1 -3 -3.5t-3 -3.5q-9 -33 -33 -33q-7 0 -15 3q-9 3 -22 0q-18 -6 -76 -29q-59 -26 -84 -31 q-13 -2 -42 -8.5t-51.5 -10t-43.5 -3.5q-17 0 -37 -8q-33 -12 -84 -15h-4q-15 0 -21 7q-8 8 -10 30z" />
<glyph unicode="[" horiz-adv-x="462" d="M-33 125q4 76 12.5 239.5t12.5 249.5q13 287 20 416q9 160 21 326q12 176 24 262q2 18 7 37.5t14 47.5t12 38q3 7 12 13.5t17 8.5q115 9 155 9q20 0 68 -19q32 -11 23 -41q-11 -36 -41 -33q-12 0 -35 3.5t-27 3.5q-29 5 -42.5 -5t-16.5 -39q-2 -18 -2.5 -62t-3.5 -67 q-7 -61 -26.5 -202.5t-27.5 -218.5q-3 -30 -3.5 -61.5t0.5 -74.5t1 -61v-193q2 -57 6.5 -168.5t6.5 -168.5q4 -96 2 -144q-3 -47 -11.5 -141t-11.5 -141q-2 -29 6 -91q2 -18 33 -18q62 4 96 10q19 3 117 23q4 0 13 1t14.5 1t5.5 -2q18 -35 10 -53q-10 -34 -24 -42t-56 -8 q-18 0 -38 -2.5t-47 -7t-38 -6.5q-12 -2 -52.5 -6.5t-61.5 -9.5q-20 -2 -31.5 -2t-27.5 7.5t-25 14t-23.5 17t-23.5 16.5q-7 5 -7 31v313h-6z" />
<glyph unicode="\" horiz-adv-x="651" d="M45 1460q-13 57 25 60q35 4 75 -37q27 -27 37 -60q26 -81 56 -230.5t41 -193.5q6 -24 16 -51.5t23 -62.5t20 -54q29 -90 57 -163q16 -43 35.5 -92.5t42 -108.5t35.5 -92q34 -86 45 -125q56 -192 74 -260q2 -9 6.5 -20t6 -15.5t-1.5 -10.5t-13 -12q-27 -18 -82 11 q-22 13 -54.5 72.5t-52 112.5t-10.5 52h-6q-22 69 -64 209.5t-63 210.5q-79 255 -109 356q-78 270 -80 279q-57 217 -59 225z" />
<glyph unicode="]" horiz-adv-x="462" d="M-100 -156q-3 11 12 56q1 3 13.5 3.5t21.5 -1.5q19 -1 57 -5.5t59 -5.5q46 -3 95 0q30 0 32 23q11 85 11 92q-1 47 -6.5 141.5t-6.5 141.5q0 27 3 79.5t4 65.5q4 54 13 168t13 174q2 33 4 97.5t4 97.5q1 19 3.5 66t2.5 66t-2 64q-4 63 -10 133t-14 156t-12 133 q-1 21 0 64t0 65q-3 30 -15.5 37.5t-42.5 1.5q-18 -5 -61 -14q-30 -5 -41 31q-7 29 24 43q6 3 16.5 8t17.5 8t16.5 6t17.5 4q79 6 158 6q6 0 14.5 -6.5t9.5 -13.5q27 -89 29 -121q11 -118 14 -262q4 -110 8 -326q5 -352 5 -420q4 -328 4 -491h-6q-10 -259 -13 -315 q0 -29 -6 -33q-10 -7 -29.5 -23.5t-31.5 -25t-32 -15.5t-40 -4q-16 3 -34.5 4t-42 1t-36.5 1q-10 1 -39.5 3t-40 2t-40.5 -1q-43 -3 -56.5 3t-23.5 38z" />
<glyph unicode="^" horiz-adv-x="681" d="M115 1563q-29 18 31 69l4 4q32 27 76 92.5t79 92.5q8 4 12 4q3 0 7 -4q139 -131 188 -205q2 -3 7.5 -11.5t8.5 -11.5q12 -24 -4 -26h-18h-23q-49 0 -71 22q-11 13 -17 39t-12 35q-2 5 -5.5 9t-6.5 7.5t-8.5 7.5t-8.5 6.5t-10.5 6.5t-9.5 5l-11 5.5t-10 5.5q-8 4 -12 4 q-2 0 -10 -8q-6 -9 -19 -28t-21 -30.5t-20.5 -27t-26 -28t-28.5 -23.5q-14 -11 -30.5 -15t-30.5 3z" />
<glyph unicode="_" d="M-57 135q13 31 92 31q72 -1 215 -1t215 -1q65 0 147 -14q63 -12 37 -52q-10 -18 -26.5 -21.5t-51.5 3.5q-82 10 -141 8q-196 -6 -393 -18q-60 -3 -86.5 15t-7.5 50z" />
<glyph unicode="`" horiz-adv-x="253" d="M-55 1817q-15 37 39 47q48 10 75 -21q4 -5 13.5 -17.5t12 -15t10.5 -10t15 -11t19 -9t29 -11.5q7 -3 33.5 -9.5t37.5 -12.5q26 -14 43 -35q7 -10 -1.5 -18t-30.5 -11q-85 -11 -136 7q-34 20 -69.5 48t-67.5 48q-5 3 -9 8t-8 13z" />
<glyph unicode="a" horiz-adv-x="655" d="M33 336q4 52 4 70v6q-1 15 -1 42.5t-1 41.5q0 29 4 43q9 43 12 90q0 9 10 67q2 20 9.5 57.5t9.5 55.5q4 35 31 139q2 9 12.5 47t13.5 60q3 17 7.5 36t11.5 42t10 36q5 14 14 56q3 17 21 20q20 1 35 1q31 0 47 -5q23 -9 30 -35q10 -28 29 -88q1 -5 6.5 -22.5t7.5 -30 t0 -25.5q0 -10 9 -28q8 -33 24 -70q8 -23 2 -37q-3 -7 6 -16q26 -30 37 -78q4 -17 37 -80q7 -16 20.5 -43.5t18.5 -38.5q2 -5 4 -13t2 -9q2 -6 14 -47q15 -45 15 -52q0 -14 14 -51q5 -19 15.5 -55.5t15.5 -54.5q8 -26 16 -39q12 -16 12 -35q0 -8 -2 -17q-8 -29 -34 -43 q-10 -7 -17 0q-40 34 -45 76q-1 13 -7.5 37.5t-8.5 36.5t-7.5 37t-7.5 37q-1 2 -2 6t-2 6q-13 24 -25.5 72t-19.5 65q-36 82 -49 115q-5 12 -16 27q-2 4 -8 14t-7 16q-9 28 -20 74q-5 26 -8 33q-26 57 -37 108v4q-2 1 -4.5 4t-3.5 3q-3 0 -8 -3t-5 -6q-4 -32 -4 -49 q0 -32 -8 -59q-3 -6 -4 -20.5t-4 -20.5q-6 -13 -8 -39.5t-8 -38.5q-2 -5 2 -18q8 -20 24 -11q13 6 55 6q19 0 27 -14l10 -10q12 -12 9 -19q-7 -17 -21 -20l-8 1q-8 1 -8 -1q-15 0 -23 -2q-8 -4 -25.5 -12.5t-25.5 -12.5q-19 -11 -21 -26q-1 -5 -2.5 -18.5t-4.5 -23t-9 -16.5 q-4 -4 0 -8q3 -5 3.5 -11t0 -10.5t-2 -12t-1.5 -11.5q0 -5 -1 -19.5t-0.5 -24.5t5.5 -19q5 -15 -6 -33q-11 -16 -8 -43q1 -8 -1 -23t-1 -22q1 -8 5 -23.5t5 -21.5q2 -10 2 -35q-3 -56 -57 -78q-7 -2 -13 -2q-9 0 -16 4q-19 9 -68 39q-9 9 -12 19q-17 44 -17 71q0 5 1 10v19 h-2zM180 842h6v2q-1 0 -2 1t-2 1q0 -2 -2 -4z" />
<glyph unicode="b" horiz-adv-x="677" d="M-6 59q-6 7 -6 13t6 12q13 13 41 33q2 2 28 12q27 14 28.5 20t-19.5 27q-15 18 -21 39q0 2 -2 17t-4 22q-3 12 -3 23q0 27 21 40q6 3 4.5 10.5t-10.5 10.5q-27 11 -24 47q1 6 2 19.5t2 19.5q-6 24 -6 25q4 72 8 114q3 27 12 51q11 40 11 73q0 17 -3 32q-4 18 -4 48 q0 20 2 46q4 30 0 47q-2 16 -2 33q0 28 6 59q13 60 13 96q0 13 -2 23q-1 14 12 66q4 20 4 34q-3 19 -6.5 21t-20.5 -2q-12 -4 -28 4q-26 14 -29 43q-3 17 8 25q8 5 24.5 15t24.5 15q23 10 33 27q19 34 86 63q11 6 33 14t29 11q24 11 52 10h13q24 -2 58 -10q17 -6 20 -10 q23 -27 33 -41.5t18.5 -41.5t1.5 -54q-4 -20 -8 -43t-8.5 -50.5t-7.5 -42.5q-6 -32 -23 -57q-23 -38 -35 -66q-6 -6 -6 -16q-2 -6 1 -12t7 -6q11 0 42.5 -9.5t50.5 -3.5q4 2 16 -2q7 -2 20.5 -15t26.5 -13q7 0 13.5 -4t9.5 -7.5t9 -12.5t7 -11q7 -10 33 -41q9 -12 6 -25 q-7 -23 8 -35q17 -12 21 -43q1 -10 1 -20q0 -32 -8 -59q-2 -7 -9 -37.5t-13 -46.5q-4 -12 -19 -52q-10 -20 -16 -38q-11 -28 -12 -29q-11 -20 -34.5 -57.5t-35.5 -57.5q-18 -30 -72 -88q-6 -6 -18 -16.5t-21 -19.5t-14 -19q-6 -12 -15.5 -22.5t-24 -23.5t-19.5 -18 q-9 -9 -17 -12q-21 -7 -39.5 -21.5t-28.5 -27.5t-26 -37q-12 -15 -28 -10q-14 5 -28 5q-26 0 -54 -15q-15 -8 -24 -8q-2 1 -4 1q-10 2 -22 13q-10 10 -26 30zM37 424q1 1 3 2t3 2l2 2h-4q-1 -1 -2 -3t-2 -3zM186 1110q0 -55 2 -84q0 -30 7 -70q0 -6 10 -6q9 6 16 13 q10 12 30 36.5t30 36.5q1 2 3 7.5t3 7.5q4 20 22 60.5t21 64.5q1 7 10.5 19t11.5 19q2 8 1.5 23.5t0.5 24.5q0 1 2.5 7.5t1.5 8.5q-15 35 -28 43q-11 9 -22 9q-8 0 -15 -5q-15 -15 -60 -27q-28 -7 -34 -30q-10 -47 -13 -82v-14v-28q2 -26 2 -34h-2zM209 377q5 -58 6 -70h-4 q1 -12 2 -35t2 -34q-1 -15 9 -20q4 -2 8 -2q6 0 14 5q16 16 18 19q10 18 39 47q18 14 25 26q84 125 100 152q4 9 16 30t18.5 37t10.5 33q9 27 14 37q27 52 25 84q6 12 6 26v8q0 8 -1 12q-1 6 -6.5 25.5t-6.5 22.5q-15 62 -80 74q-9 0 -21 4q-28 4 -36 12q-6 6 -13 6 q-6 0 -14 -4q-20 -10 -66 -26q-65 -21 -66 -89q0 -6 1 -12q1 -16 2 -47t2 -47q1 -19 1 -46q0 -31 -2 -73q-2 -50 -2 -82q0 -19 1 -32q0 -3 -1 -9.5t-1 -9.5q-2 -4 -2 -10t2 -12z" />
<glyph unicode="c" horiz-adv-x="649" d="M37 516q9 111 14 156q3 17 10.5 51.5t10.5 52.5q30 144 43 193q30 119 69 180q3 4 11.5 22t15.5 25q7 9 21.5 26.5t21.5 26.5q35 47 90 66q24 8 42 8q10 0 16 -2q22 -6 42 -31q14 -15 62 -80q3 -5 12 -32q10 -39 8 -54q-1 -6 -1 -13q0 -19 4 -51q3 -25 3 -44 q0 -15 -2 -25q-1 -3 -1 -8t-1 -8q-2 -9 -12 -13t-18 3q-2 2 -8.5 8t-9.5 9.5t-7.5 9.5t-6.5 11.5t-3 12.5q-1 3 -7 37t-10 51q-8 60 -26 80q0 1 -1 3t-1 3q-1 2 -2.5 8t-4.5 9t-8 3q-9 -2 -18 -20q-4 -9 -13.5 -27.5t-13.5 -27.5q-50 -97 -59 -117q-33 -70 -41 -135 q-2 -19 -3 -40t-1.5 -46t-1.5 -39q-8 -86 -10 -131q-4 -20 -4 -35q1 -10 3 -33.5t4.5 -40.5t6.5 -33q6 -18 0 -36q-3 -24 2 -43q18 -74 31 -101q1 -2 5 -10.5t7 -11.5q17 -21 20 -41q0 -4 13 -23q8 -13 24 -6q24 14 37 29q15 19 45 53q1 2 4 6t4 6q8 17 27 46.5t23 35.5 q5 11 8 12q13 9 30 35q3 6 10 5t9 -7q3 -11 3 -17q0 -3 -1 -5q-7 -32 -21 -54q-16 -32 -59 -108q-8 -16 -22 -37q-30 -40 -97 -76q-45 -22 -85 -22q-24 0 -46 8q-53 14 -78 47q-28 32 -34 55q0 1 -1 3t-1 3q-13 18 -27.5 54t-18.5 45q-3 8 -7 22.5t-5 18.5q-14 66 -14 145z M135 616q2 -4 2 -10q4 -4 6 -4h1t3 4q-1 3 -2 10.5t-2 10.5l-2 2q-4 0 -4 -2q0 -7 -2 -11z" />
<glyph unicode="d" horiz-adv-x="616" d="M20 979q-1 2 -1 8q0 14 4 49q0 5 8 34t2 46q5 12 14 38t14 38q7 22 2 37q-7 27 23 53q1 1 43 31q9 6 23 6q21 0 67 16q11 3 45 8q4 0 7 1q14 0 27 -4q16 -4 39 -14.5t30 -12.5q2 -1 16 -10q2 -1 16.5 -14t22.5 -19q11 -8 22.5 -26.5t18.5 -24.5q2 -1 8 -6.5t8.5 -8 l7.5 -7.5t7.5 -8t5.5 -8t4 -10l6 -12q8 -7 13.5 -15t9 -17.5t5.5 -16.5t5 -19.5t4 -17.5q17 -56 18 -109q0 -23 -4 -46q-3 -16 -3 -51t-3 -52q-6 -23 -10 -100q0 -17 -4 -25q-6 -15 -15 -50.5t-18 -53.5q-6 -16 -13.5 -45t-9.5 -37q-4 -23 -10 -31q-21 -21 -24 -55 q-7 -38 -31 -62q-13 -11 -25 -39q-15 -35 -45 -59q-31 -27 -43 -51q-5 -12 -14.5 -23.5t-17 -18t-22 -18t-20.5 -16.5q-7 -6 -22.5 -17.5t-22.5 -17.5q-23 -20 -51 -28q-9 -2 -17 -2q-26 0 -44 22q-11 17 -29 31q-24 20 -24 50v7q0 15 6 27q9 30 6 61q0 23 6 41q9 28 9 70 q0 30 -5 67q-2 10 -3 22t-1.5 26t-1.5 22q0 3 1 8t1 8q-6 17 -8.5 35t-3.5 41.5t-2 34.5v29q3 33 3 56q0 12 -1 21q-1 22 -1 30t2 30t3 31v49q-2 13 -6.5 44.5t-6.5 49.5zM182 297q0 -27 2 -37q0 -10 10 -13q3 -1 7 -1q6 0 12 4q12 6 20 14q8 9 24 27.5t24 27.5q2 2 4 9 t4 10q4 8 10.5 24t13 29t13.5 23q22 29 24 51q3 43 41 59q14 7 4 17q-21 24 -4 47q4 4 15 33q9 39 12 71q1 10 8.5 35.5t5.5 40.5q4 14 6.5 30.5t3 27.5t1.5 31.5t1 29.5q0 21 15 31q11 8 11 17q0 7 -7 13q-12 12 -13.5 29.5t1.5 30.5q1 9 1 18q0 40 -16 61q-2 2 -2.5 5 t-0.5 8t-1 8q-18 56 -53 86q-15 15 -51 39q-19 14 -29 14q-7 1 -16 1q-17 0 -41 -3q-25 0 -29 -22q-6 -60 -6 -62q-1 0 -1 -49l1 -49q0 -11 -1.5 -31t-1.5 -36t3 -31q2 -3 -4 -15v-12q12 -16 8 -55v-74q1 -10 1 -19q0 -34 -9 -63q-9 -23 -9 -45q0 -20 7 -39q5 -14 0 -37 q-8 -39 -8 -119q0 -11 -2 -41.5t-1 -48.5q3 -28 -4 -59q-5 -22 -5 -33q0 -5 1 -8z" />
<glyph unicode="e" horiz-adv-x="661" d="M51 293q-3 24 -3 48q0 31 5 60v39q-2 18 -2 34q0 30 8 56q6 17 2 39q-3 18 -3 34q0 22 5 42q1 6 3.5 19.5t3.5 19.5q0 23 8 39q12 19 12 53q-3 23 6 47q4 16 4 27v143q0 7 4 19q2 8 7.5 24.5t7.5 24.5q1 4 2.5 10.5t2.5 11t3.5 10t5.5 9.5q10 12 6 35q-1 7 -4 24t-4 27 q-4 30 4 45q17 25 28 29q10 4 23 0q16 -6 33 4q12 9 23 9q15 0 28 -15q19 -22 43 -25h17q13 7 49 2q21 0 24 2q6 4 14 5.5t13.5 1.5t16 -0.5t14.5 -0.5q18 -2 51 6q24 5 49 -4q9 -4 26.5 -10t26.5 -10q10 -5 15 -13q9 -5 4 -10q-3 -6 -4.5 -18t-6 -21t-14.5 -14 q-18 -11 -28 0q-14 13 -33.5 19.5t-37.5 6.5t-38 -1q-9 0 -94 -11q-9 -2 -24.5 -7.5t-20.5 -6.5q-28 -11 -41 -43q-23 -66 -25 -111q-3 -47 -12 -94q-7 -30 -7 -60q0 -10 1 -20v-39q0 -21 22 -24q13 -2 37 10q17 6 36 6q26 0 54 -12q16 -5 23 -27q3 -17 -8 -28 q-25 -22 -45 -11q-19 6 -35 -2q-9 -3 -39 -8q-4 -1 -12 -1t-11 -1q-37 -6 -37 -45q0 -3 5 -18q3 -26 -7 -56q-8 -25 -6 -39q3 -31 2.5 -42.5t-5 -41.5t-5.5 -41q-2 -21 -2 -37q0 -51 18 -79q11 -15 23 -15h59v-2q23 1 70 4.5t70 4.5h9h9.5t9 -0.5t9 -1.5t8 -3.5t8.5 -5.5 q2 -2 6 -2q30 6 57 15q7 0 15 8q12 10 32 -2q17 -10 17 -29q-3 -26 -23 -37q-31 -17 -56 -17q-14 0 -26 5q-5 4 -11 4t-14 -2t-13 -2q-3 1 -11.5 -1.5t-11.5 -2.5q-62 -4 -182 -8q-54 -3 -90 -27q-15 -12 -29 -12l-27 10q-4 4 -24 12q-24 8 -41 35q-22 36 -25 78zM131 586 q3 -2 6.5 -6t5.5 -5q1 0 5 3t4 7t-2 7t-6 3q-2 0 -3 -1q-2 0 -10 -8zM135 473l6 -6l4 6q-4 4 -6 4z" />
<glyph unicode="f" horiz-adv-x="620" d="M31 606v21q4 86 6 127q5 70 12 90q12 27 -4 59q-10 24 4 35q20 20 10 43q-3 10 0 16q4 9 4 22q0 21 -10 54q-2 20 -2.5 24.5t2 24.5t2.5 25q1 11 4 33.5t4 33.5q4 37 19 52q8 8 8 16q-4 16 0.5 30t13 30t11.5 26q9 42 53 42q6 0 12 -1h60v-2q14 0 20 2q5 3 17 3 q7 0 17 -1q25 -3 33.5 -4.5t34.5 -7.5t35 -8q18 -5 52 -19.5t40 -17.5q11 -4 15 -8q31 -28 65 -39q22 -9 25 -33q0 -19 -16 -25q-22 -10 -43 -10q-16 0 -31 6q-46 15 -88 41q-27 19 -61.5 22t-61.5 -3q-4 -4 -12.5 -10.5t-14 -12.5t-8.5 -12q-39 -84 -43 -135q0 -17 -4 -23 q-14 -26 -14 -65q0 -21 4 -46q5 -32 5 -65q0 -44 -9 -90q-10 -74 -11 -86q-2 -12 7.5 -22t21.5 -9q31 7 70 21q35 12 57 0q13 -7 39 2q15 4 53 8q25 3 53 -15q33 -20 9 -38q-3 -3 -11.5 -8.5t-11.5 -8.5q-4 -4 -4 -12q1 -2 5.5 -6.5t5.5 -7t-3 -7.5q-11 -8 -26 -4 q-26 6 -51 7t-52 -3t-44.5 -8t-47.5 -12q-23 -8 -37 -10q-15 -1 -24 -10t-9 -23v-8q0 -25 -4 -74q-4 -33 -4 -58q0 -18 2 -32q3 0 2 -37l-2 -37q0 -27 2 -41q3 -1 1.5 -54t-1.5 -54q1 -34 0 -61t1 -61t7 -61q1 -6 1 -12q0 -30 -23 -53q-9 -8 -24 -8q-8 0 -16 1q-27 6 -44 25 q-41 39 -41 79v9q1 39 2 41.5t-3.5 43t-4.5 44.5q-5 32 -5 64t5 63q2 10 2.5 31.5t1.5 28.5q0 13 1 41t1 41q4 13 2 18q-7 9 -9 19t-1 22.5t0 17.5q0 24 -4 74z" />
<glyph unicode="g" horiz-adv-x="854" d="M-4 389q-1 16 -1 33q0 72 21 149q12 49 21 99q1 3 2 8.5t2 7.5q5 8 9 17t6.5 19.5t4 17.5t4 20t3.5 18q13 60 32 105q3 8 14.5 33.5t16.5 39.5q8 34 43 91q21 32 33 59q7 17 23 46t22 42q25 52 59 86q3 3 11 15t14 16q22 27 53 55q27 22 68 43q7 7 16 4q19 0 31 12 q14 15 36 15h7q44 -5 102 -33q44 -21 47 -80q4 -82 4 -121q0 -2 -6 -14q0 -2 -2 -2.5t-4 0.5q-28 28 -33 59q-7 32 -10 58q-6 26 -27 32q-50 13 -65 13h-2q-32 0 -49 -23q-31 -31 -43 -51q-8 -15 -18.5 -29.5t-26 -34.5t-21.5 -28q-3 -5 -10 -17t-8 -14q-5 -15 -8 -18 q-11 -15 -22 -35t-17.5 -34t-18 -39t-16.5 -36q-5 -10 -17.5 -42.5t-21.5 -49.5q-5 -7 -8 -20q-10 -70 -35 -125q-1 -2 -1 -8t-1 -9t-1.5 -13t-2.5 -15q-14 -31 -21 -84q-1 -8 -7.5 -35t-6.5 -43q0 -7 -4 -23q-14 -69 -14 -137v-88q0 -6 5 -9.5t9 -0.5q41 29 47 33 q12 9 41.5 32.5t52 39t45.5 26.5q17 6 31 27q20 23 43 40q30 20 47 52q3 6 41 49q4 4 3 10.5t-7 9.5q-6 0 -8 2q-14 2 -22.5 11.5t-11.5 19t-7 27.5q-2 14 5 22.5t17 5.5q17 -6 52 2q40 5 53 5q15 -1 28 -1q27 0 48 5q9 5 14 2q10 -3 51 2h6q32 0 51 -27q6 -9 6 -16 q0 -6 -4 -11q-3 -7 -7 -12t-7 -8t-9.5 -6t-9.5 -4.5t-11.5 -4t-10.5 -3.5q-4 2 -6 2q-7 12 -33 12q-25 0 -69 -19q-6 -2 -7 -11t5 -11q14 -6 18 -33q7 -33 -2 -59q-8 -36 -8 -78q0 -30 -10 -72q-5 -20 -5 -51q-4 -74 -12 -100q-2 -6 -2 -39q0 -57 -4 -74q-1 -5 0 -16.5 t0 -16.5q-8 -63 -14 -98q-6 -31 -35 -41q-5 -2 -12.5 -3t-16.5 -1.5t-14 -1.5q-5 0 -9.5 4.5t-4.5 11.5q-9 40 -9 60q2 28 6.5 85t6.5 85q3 52 6 102q0 12 2 18q4 20 6.5 42t4.5 52t3 42q4 20 4 30q0 4 3 29t-5 29q-4 -5 -16.5 -18t-18.5 -21q-22 -25 -41 -35 q-11 -6 -22.5 -15t-19.5 -16.5t-20.5 -20t-19.5 -18.5q-40 -36 -67 -49q-1 -1 -8 -4.5t-11 -7.5q-22 -22 -38 -29q-11 -5 -11 -6q-7 -11 -17 -18.5t-24 -15t-20 -11.5q-19 -11 -43 -11q-22 0 -49 9q-1 1 -11 6q-30 15 -38 25.5t-15 46.5q-11 41 -14 98z" />
<glyph unicode="h" horiz-adv-x="862" d="M69 1119.5q0 13.5 3 43.5t4 43q2 45 18 131q1 3 2 9.5t2 9.5q7 34 35 37q22 3 35 26q6 8 15 8q5 0 10 -2q34 -23 38 -49q0 -12 7 -26q13 -27 -2 -47q-5 -10 -5 -27q-4 -39 -14 -57q-6 -12 -2 -27q8 -90 14 -137q0 -3 -1 -11t-1 -12q-2 -41 -6 -127q-3 -11 0 -22 q1 -23 8 -29t31 -6q53 0 166 33q33 11 39 45q1 11 5 29t6 32.5t1 28.5q0 6 3 18t3 15q0 5 6.5 32t2.5 43q-4 7 2 13q11 19 0 39q-8 14 6 28q10 12 10 33q-3 21 4 45q1 10 3 21.5t5 25t4 21.5q3 15 16.5 23.5t28.5 4.5q21 -5 35.5 -22t11.5 -37q-1 -15 3 -39.5t4 -28.5 q3 -32 0 -63q-2 -18 -2 -105q0 -66 -5 -92q-4 -27 16.5 -40.5t43.5 -4.5q3 2 10 4t10 4q8 4 16.5 6t18.5 2t15.5 -0.5t18.5 -2.5t17 -3q10 -2 16 -16q4 -10 4 -18q0 -4 -1 -7q-8 -38 -35 -43q-16 -3 -35 -14q-17 -10 -33 -10q-14 0 -26 -6q-43 -15 -43 -62q2 -33 2 -196 q0 -13 4 -41q0 -1 1.5 -9.5t0.5 -13.5q-3 -28 -4 -36.5t2 -35.5l4 -36q3 -28 6 -80.5t4 -69.5q1 -16 11 -82q6 -36 6 -39q4 -18 14 -20q17 -3 12 -21q-1 -6 -4 -14.5t-4 -11.5q-2 -17 -22 -27q-31 -17 -46.5 -14.5t-37.5 30.5q-11 16 -11 17q-2 5 -13 28t-15.5 32.5t-10 28 t-6.5 34.5q-4 30 -28 133q-8 33 -8 61q0 9 1 17q1 6 1 14q0 43 -19 125q-9 32 -6 45q2 4 2 14q-6 25 -7 73.5t-3 66.5q0 13 -6 22q-13 31 -41 17q-39 -16 -138 -29q-24 -2 -53 -31q-3 -3 -8 -26q-1 -11 -1 -24q0 -39 11 -93q1 -3 3 -10t3 -13t0 -10q-2 -12 -2 -30 q1 -19 3 -43q6 -48 5 -62q0 -21 10 -59t11 -44q9 -39 9 -63q0 -8 -1 -14q-1 -12 -0.5 -19t3 -20.5t3.5 -20.5q1 -9 2 -28.5t2 -28.5q1 -8 4.5 -24.5t4.5 -24.5q2 -7 2 -13q0 -28 -35 -30q-3 -2 -7 -2q-3 0 -7 1q-9 2 -12.5 1.5t-11 4t-10.5 6t-10 7.5t-9.5 8t-9 8.5 t-9.5 8.5q-7 5 -21 24q-11 11 -8 31q1 6 1 14q0 25 -7 76q-4 23 -12.5 71.5t-12.5 71.5q-18 133 -18 224q0 25 -2 37q-5 17 -7 37.5t-3 45t-2 37.5q-2 10 2 23q5 19 5 49q0 15 -1 33q-8 65 -8 126q0 42 4 83v18q-3 31 -3 44.5zM193 938l4 -2v2l-2 2z" />
<glyph unicode="i" horiz-adv-x="352" d="M57 295q1 2 1.5 5.5t1 9t1.5 9.5v46q-1 11 -1 20q0 31 10 47q2 4 2 17q-7 34 6 57q2 3 0.5 9t-4.5 7q-15 15 -15 51q0 13 -1 36t-1 36q0 38 2 45q9 46 9 119q-3 23 6 45t0 43q-11 23 2 49q12 21 12 47q-3 12 10 25q16 19 6 41q-4 13 -4 25q0 37 39 71q7 11 25 6 q24 -7 57 4q9 4 20 4q13 0 27 -6q15 -6 15 -22q-2 -8 -6 -34t-9 -43t-14 -32q-4 -4 -4 -8q0 -17 -3 -33.5t-9.5 -40t-8.5 -32.5q-5 -45 -12 -64q-5 -18 -2 -31q3 -11 3 -25q0 -34 -15 -89q-4 -25 -2 -37q8 -33 8 -99q-2 -35 -2 -100v-27q0 -11 -1.5 -34t-1 -40t4.5 -34 q2 -16 2 -23t-2.5 -24t-3.5 -25q0 -7 -5.5 -12.5t-13.5 -5.5q-7 -1 -30 -15q-18 -14 -37 -14q-22 0 -45 19q-17 15 -17 57zM123 616h4l-2 5z" />
<glyph unicode="j" horiz-adv-x="612" d="M-147 63q0 3 5 7t9 4q3 2 10 0.5t8 -4.5q6 -7 15 -21t12 -18q11 -15 29 -15h39q17 0 32 15q40 40 99 61q85 40 104 117q23 94 23 121q0 6 2 10q9 17 13 37.5t4.5 39t0.5 39.5v40v39h-2l6 147q0 6 -4 18q-2 12 -8 38t-8 38q-2 11 2 27q0 3 1.5 12t0.5 14q-5 25 -6 54v31 v34q1 36 0 56q-4 47 -4 83q0 52 8 80q4 15 2 23v96q1 19 -6 23t-29 -2q-9 -3 -27.5 -9.5t-27.5 -9.5q-11 -3 -20 -3q-29 0 -48 28q-8 11 -8 21q0 17 26 32q18 6 21 8q20 6 59 19q103 36 179 41q62 4 98 26q18 12 48 12q14 0 30 -2q33 -6 42 -26q3 -6 3 -11q0 -14 -17 -28 q-47 -41 -90 -45q-21 -1 -24.5 -5t-3.5 -22v-123q0 -6 1 -19.5t1 -19.5q-1 -7 -3.5 -21.5t-3.5 -21.5q0 -2 -1 -4.5t-1 -3.5q1 -10 4.5 -30.5t4.5 -30.5q1 -8 -3 -28.5t-1 -31.5q8 -22 12 -44.5t4 -50t-0.5 -42t-3.5 -50t-4 -44.5q-3 -35 -14.5 -99.5t-14.5 -90.5 q-4 -13 -2 -23q1 -18 1 -34q0 -73 -15 -120q-28 -87 -58 -127q-30 -47 -32 -77q-2 -20 -33 -60q-10 -11 -31 -33.5t-31 -33.5q-14 -17 -39 -23q-33 -4 -77 -31q-64 -38 -80 -45q-14 -6 -62 -20q-10 -3 -22 -3q-25 0 -58 11q-17 8 -28 31q-11 17 -11 44q0 13 3 29z" />
<glyph unicode="k" horiz-adv-x="792" d="M20 139q2 17 7.5 52t7.5 53q10 143 14 170q1 8 2.5 26.5t2.5 29t4.5 25.5t9.5 27q2 4 1.5 15.5t0.5 17.5q8 54 16 166q0 16 4 22q12 25 12 91q0 112 25 188q11 34 11 62q0 9 -1 18q-1 10 8 47q6 19 21.5 63t23.5 68q6 15 20.5 19.5t27.5 -3.5q24 -16 36 -28q9 -9 9 -17 q0 -13 -4 -37q-23 -122 -23 -155q0 -11 2 -15q0 -5 5 -7t9 1t14 11.5t15.5 13.5t12 13.5t10.5 17.5q6 12 23 25.5t20 17.5q8 9 19.5 30t12.5 23q5 5 15 10q23 12 30 35q7 21 33 43q1 1 5.5 3.5t7.5 5.5t4 7q10 23 26 29q12 4 32 5q6 0 13 -1q26 -4 23 -24q0 -20 -8 -31 q-12 -19 -52 -64q-7 -8 -19.5 -20.5t-22.5 -23.5t-17 -23q-3 -12 -14 -19l-10 -6t-9 -6t-8 -8t-6.5 -7.5t-7 -8.5t-6 -8.5t-6 -9.5t-5.5 -9q-12 -22 -43 -49q-11 -9 -21.5 -19.5t-25 -27.5t-20.5 -23q-8 -8 -4 -25q0 -19 20 -36q86 -66 127 -101q7 -6 20.5 -19.5t20.5 -19.5 q1 -1 4.5 -7t7.5 -7q15 -12 28.5 -29t21 -30t19 -36.5t17.5 -33.5q9 -17 27 -46.5t25 -41.5q9 -18 28.5 -52.5t28.5 -52.5q3 -6 8 -26q2 -4 5 -13.5t5 -13.5q51 -99 60 -119q3 -7 3 -12q0 -13 -14 -22q-1 -1 -11 -7.5t-15 -11.5q-16 -13 -35 -10q-48 3 -48 39q0 6 1 12t1 12 q0 35 -30 58q-38 30 -38 69q0 5 1 9q3 3 -2 8q-16 9 -28.5 41t-26.5 43q-5 5 -9 11.5t-8 17.5t-5 14q-31 71 -103 172q-19 27 -61 49q-32 22 -45.5 18t-20.5 -45q-10 -62 -10 -75q0 -39 -12 -76q-13 -31 -13 -62v-12q0 -84 3 -125v-14h-3q-1 -36 -3 -107.5t-3 -107.5 q-4 -56 -8 -86q-5 -22 -8 -27q-9 -21 -33 -24q-9 0 -28 -2.5t-29 -2.5h-1q-2 0 -5 2q-5 3 -5 5q4 18 -6 20q-5 1 -20.5 12t-26.5 9h-12q-17 9 -19 14q0 7 -6 31q-5 20 -5 35q0 18 11 36zM76 436l4 -6h4q-1 1 -2 3q-1 3 -2 3h-4z" />
<glyph unicode="l" horiz-adv-x="532" d="M27 125q4 16 4 25q17 101 20 221v43q0 27 6 51q11 42 11 67q-1 13 6 35t6 33q-2 13 -2 26q0 23 6 46q4 8 4 14q-1 8 -1 18q0 20 4 48q6 44 5 63q0 15 2 21q7 32 10.5 93t4.5 75q1 12 4 33t4 32t2 34t2 34q3 57 12 120q2 18 9.5 50.5t9.5 44.5q3 24 22 30q29 12 45 17 q35 5 41 6q5 1 9 1q17 0 33 -14q20 -18 20 -44q0 -58 -11 -140q-19 -183 -20 -231q0 -11 -1 -23t-2.5 -26t-2.5 -23q-1 -6 -2 -19.5t-2 -19.5q0 -15 -4 -43q-5 -25 -5 -32q3 -34 -6 -62q-4 -12 -4 -18q2 -22 1.5 -32t-3.5 -30.5t-4 -30.5q-4 -80 -14 -108q-1 -4 -1 -12.5 t-1 -12.5v-32q-7 -21 -11.5 -60t-5.5 -45q-5 -21 -22 -74q-16 -56 -23 -127q-1 -17 5.5 -24.5t19.5 -5.5q19 0 55 4v-4l80 10q27 3 50 3q29 0 52 -5q4 -1 14 -1t15 -1q17 0 25 -4q18 -7 21 -19q1 -3 1 -8q0 -11 -6 -26q-12 -29 -41 -29q-9 0 -29 4q-32 6 -79 6t-111 -6 q-74 -8 -109 -14q-6 -1 -12 -1q-24 0 -41 11q-5 3 -15.5 9t-15.5 9q-35 18 -35 58q0 6 1 12zM98 414q0 -2 2 -4h2l-2 6zM135 545q0 -15 4 -39q0 -2 4 -6q1 1 2.5 2l3 2t1.5 2q0 10 1 30.5t1 30.5q-17 -7 -17 -22zM137 463h4v4h-4v-4zM147 590q5 -15 5 -21q6 18 6 21 q2 0 -2 4q-1 2 -2 2q-2 0 -4.5 -2.5t-2.5 -3.5zM229 1247l2 -4h5q8 14 8 29v6q-2 2 -4 2l-2 -2q-3 -17 -9 -31z" />
<glyph unicode="m" horiz-adv-x="950" d="M10 1183v11q0 12 1 26q1 22 1 31q1 20 15.5 30t33.5 7q2 -1 6.5 -2t6.5 -2q6 -1 22 -7t25 -7q31 -6 45 -29q6 -11 22 -37t26 -45.5t17 -38.5q1 -3 18.5 -51t24.5 -74q5 -17 21 -41q12 -24 14 -39q2 -11 10 -13t17 5q9 9 10 11q9 13 33.5 42.5t34.5 47.5q5 7 16 27t20 33 t19 24q11 14 33 46.5t37 49.5q27 33 75 104q23 31 45 43q48 26 70 64q18 26 59 33q3 1 5 1q9 0 20 -8q23 -20 47 -4q13 7 23 -6q22 -25 22 -53q-6 -102 -31 -213q0 -1 -2 -13t-4 -18q-2 -8 -4.5 -38.5t-9.5 -47.5q-4 -6 -4 -26q0 -84 -2 -127q-2 -35 -10 -115 q-21 -156 -54 -260q-6 -19 -9 -55.5t-5 -47.5q-8 -51 -20 -153q-6 -54 -9 -101q-3 -23 -11.5 -31.5t-31.5 -9.5q-25 0 -45 -20q-5 -7 -15 -9q-5 -1 -11 -1h-7q-8 2 -18 0q-26 26 -24 47q8 67 10 98q6 54 6 55q0 24 2.5 52t5.5 47.5t8.5 52.5t7.5 49q15 111 33 225 q1 6 3 18.5t3 18.5q1 4 4.5 12.5t4.5 12.5q9 62 43 158q4 12 4 18v6q1 34 11 93q12 64 13 83q4 59 31 156q4 14 4 45q0 4 -4 8q-6 0 -8 -2q-4 0 -4 -2q-10 -8 -38.5 -30.5t-43.5 -36.5q-29 -26 -47 -60q-2 -5 -29 -37q-58 -78 -59 -80q-26 -35 -84 -131q-3 -3 -6 -12 q-28 -71 -117 -160q-21 -25 -43 0q-17 17 -31 49q-16 46 -27 68q-3 8 -14 12q-8 0 -12 -16q-2 -6 -2 -19q1 -9 2 -27.5t2 -27.5h-4q4 -28 4 -45q0 -6 -1 -18.5t-1 -18.5q-1 -6 -3 -22t-2 -22.5t1 -22.5q2 -14 1.5 -38t0.5 -38q0 -12 2 -37t2 -37q0 -23 -4 -63 q-3 -17 -11.5 -51t-11.5 -52q-5 -24 -20 -66.5t-17 -49.5q-9 -27 -34 -33q-10 -3 -18 -3q-24 0 -36 27q-20 42 -20 86q0 15 2 29q9 50 9 107q0 51 -7 108q-1 7 -4 36.5t-4 42t-2 36t0 43.5t4 39q1 20 1 27.5t-2 29t-3 29.5q-1 30 -7 120q-5 76 -4 124v16q0 35 -4 49 q-4 16 -4 32zM731 676l2 -2q2 0 2 4h-2z" />
<glyph unicode="n" horiz-adv-x="849" d="M45 590q1 17 3 48t3 48h-2q4 100 8 152q0 12 2 18q8 29 2 39v4q4 21 11.5 64t11.5 65q2 12 9 36t9 38q9 43 52 59q32 16 45 29q12 12 28 2q17 -7 17 -25q-4 -20 -4 -28q0 -51 24 -111q6 -17 18.5 -49t18.5 -49q44 -130 88 -191q11 -16 19 -33.5t16.5 -42.5t13.5 -36 q2 -5 6.5 -16.5t6.5 -16.5q7 -15 21.5 -45.5t21.5 -46.5q21 -47 38 -80q3 -6 9 -6q4 0 10 6q18 44 18 81v11q-4 26 2 39q4 4 4 8q-1 5 -1 11q0 21 9 55q9 36 9 58v7q-2 5 4 21q1 6 6 26t6.5 26.5t5 27t2.5 27.5t0 28q0 4 5 29q3 17 8 52t8 52q2 13 7 37.5t7 36.5q8 36 8 53 q1 32 15 129q6 41 18 78q4 8 6 10q7 18 20 18q6 0 13 -4q9 -5 26.5 -16.5t20.5 -13.5l6 -3t7 -3t6 0q6 1 13 -1t10.5 -3.5t11.5 -6.5t10 -6q8 -5 8 -12q0 -5 -4 -10q-3 -3 -13.5 -15t-17.5 -18q-16 -12 -16 -27q-1 -21 -29 -88q-8 -12 -8 -22v-10q0 -27 -14 -52 q-3 -6 -3 -12q3 -10 3 -35q0 -15 -1 -35q-2 -41 -2 -61v-10q0 -1 -6 -31q-2 -11 -7.5 -32.5t-6.5 -27.5q-10 -36 -20 -88q-1 -6 -5 -20.5t-5.5 -21t-3 -21t0.5 -21.5q1 -21 1 -29t-2 -29.5t-3 -29.5q-3 -45 -12 -92q-3 -17 -8 -94v-18q3 -22 2.5 -29.5t-7 -27.5t-8.5 -27 q-5 -10 -6 -11q-10 -5 -26 -20.5t-21 -18.5q-20 -12 -41 -6.5t-31 27.5q-3 5 -20 45q-31 77 -51 119q-1 5 -15 24q-9 13 -22 47q-8 33 -19 46q-22 35 -61 137q-8 20 -12 28q-9 21 -19 41q-6 18 -8 21q-10 14 -25.5 43t-25.5 43l-2 2q-2 2 -10 6q-4 -4 -4 -6q0 -5 -1.5 -16.5 t-1.5 -16.5q0 -7 0.5 -21.5t1 -23t-1.5 -21t-6 -22.5q-2 -2 -2 -8q4 -10 5 -21t0.5 -18t-2 -21.5t-1.5 -19.5q-1 -12 4 -59q1 -6 4 -21t2.5 -26t-6.5 -21v-12q4 -32 4 -62q0 -42 -8 -80v-24q0 -17 -2 -25q-5 -13 -14 -63q-3 -23 -18 -33q-2 -1 -10 -8.5t-13 -9.5 q-2 -2 -31 -19h-12q-13 2 -27.5 17t-21.5 18q-10 7 -10 20q-2 27 -2 78q-5 35 -5 41v92q0 9 -1 28.5t-1 29.5q0 5 1.5 23.5t0.5 27.5q-1 11 -7 29t-7 22q-2 8 -2 29zM78 311q1 0 2 -1t2 -1q0 2 2 4h-4q0 -2 -2 -2zM584 516h2q2 0 2 2z" />
<glyph unicode="o" horiz-adv-x="681" d="M41 770q0 55 16 96q13 29 17 47q13 57 45 97q16 18 31 45q21 46 53 84q3 4 10 12t11 12.5t10.5 10t13.5 8.5q4 2 18 16q41 48 133 59q4 0 9 1l9 -1q9 -1 18.5 -5t15 -7t17 -10.5t15.5 -9.5q17 -12 23 -21q15 -19 39.5 -56t29.5 -44q9 -13 7 -19q-1 -12 12 -43 q10 -25 10 -36q2 -22 5 -68.5t5 -69.5q2 -28 13 -73q3 -16 3 -31q0 -38 -18 -70q-6 -12 -4 -18q7 -17 7 -39t-3 -34.5t-10 -37.5q-29 -103 -55 -141q-9 -18 -15 -18q-7 -1 -12 -3.5t-8.5 -7.5t-4.5 -7t-4 -11t-3 -10q-21 -59 -60 -82q-8 -5 -21.5 -22.5t-21.5 -22.5 q-3 -1 -25 -8.5t-30 -14.5q-15 -13 -31 -16q-7 -1 -13 -1q-8 0 -16 2q-12 4 -30 13q-29 16 -37 31q-31 44 -41 61q-1 2 -4 9.5t-6 9.5q-10 8 -17.5 20.5t-10 19.5t-6.5 25.5t-5 22.5q-5 21 -19 45q-34 59 -57 135q-2 5 -2.5 12t-0.5 11.5t-1 5.5q2 14 2 20q-7 36 -7 86 q0 19 1 41zM203 588q3 -80 30 -150q11 -28 5 -43q-2 -9 6 -26q21 -31 39 -52q7 -11 20 -10q6 0 14 2q5 1 12.5 6.5t10.5 6.5q18 8 41 38t39 39q3 1 10 21q19 42 23 55q2 6 11.5 16.5t10.5 20.5q13 56 35 102q18 39 18 105q-3 43 -6 84q-1 11 -2 32.5t-2 30.5q2 13 2 28 q0 47 -16 120q-8 37 -39 100q-11 24 -39 28h-7q-23 0 -36 -18q-6 -8 -18 -28.5t-21 -30.5q-7 -7 -12.5 -16.5t-9.5 -16.5t-8.5 -18t-6.5 -16.5t-6.5 -19t-5.5 -17.5q-3 -7 -13.5 -33.5t-14.5 -38.5t-8 -33t-3 -39q0 -1 -1 -4t-1 -4q-7 -27 -20.5 -82t-20.5 -82 q-10 -45 -10 -57z" />
<glyph unicode="p" horiz-adv-x="659" d="M-41 645q4 25 25 33q8 3 24.5 10t24.5 10q11 4 21 9.5t22 13.5l18 12q29 18 29 55q0 76 4 113q1 46 1 63.5t-2 64.5t-3 65v71q0 4 -1 12t-1 11q-3 27 -33 35q-7 2 -45 18q-26 13 -20 35q2 8 10 20q43 43 110 84q35 20 45 25q28 15 93 25q108 -5 110 -5h5q60 0 132 -51 q54 -33 60 -82q0 -7 10 -37q0 -3 2.5 -8.5t1.5 -7.5q-4 -17 -4.5 -22.5t4.5 -22.5t6 -23q2 -11 2 -21t-2 -20q-16 -54 -26 -75q-4 -8 -31 -86q-25 -76 -111 -133q-24 -16 -69 -47t-68 -46q-25 -18 -18 -38q2 -11 -2 -31q-9 -100 -17 -135q-4 -17 -6.5 -53t-7.5 -56 q-6 -23 -6 -76q5 -141 12 -186q7 -37 -10 -57q-7 -7 -14 -27.5t-15 -28.5q-20 -20 -39 -20q-21 0 -41 26q-26 33 -26 70v8q8 87 8 161q0 53 -4 99q-2 23 -2 138q0 3 -2 25t-4 34q-3 21 -31 12q-9 -3 -27.5 -10t-27.5 -10q-18 -6 -35 8q-29 20 -29 49zM285 891q0 -6 4 -14 q3 -11 13 -15q4 -1 7 -1q7 0 13 5q95 63 133 148q22 48 27 110q2 28 2 54q0 31 -3 59q0 12 -2 18q-6 43 -28 60t-76 18h-27q-17 -1 -20.5 -7t2.5 -21q8 -12 8 -21q0 -6 -1 -37t-2 -43t-4 -34.5t-9 -39.5q-7 -21 -15 -68.5t-16 -72.5q-4 -14 -5 -32q-1 -11 -1 -21v-12 q1 -15 0 -33z" />
<glyph unicode="q" horiz-adv-x="823" d="M-6 570v11q0 7 1 13q2 11 7 22q2 4 2 11q-4 14 -5 28t1.5 29.5t4.5 25.5t7.5 29t7.5 27l7 14q-1 35 15.5 97t18.5 88q0 4 5 24q14 31 38.5 92.5t38.5 92.5q73 166 74 169q41 101 154 189q25 19 43.5 19t44.5 -19q39 -25 51 -66q2 -2 4.5 -10.5t5.5 -11.5q13 -14 22.5 -34 t12 -30.5t8.5 -38.5q3 -26 21 -41q22 -18 41 -61q34 -83 39 -152q3 -43 43 -151q11 -29 13 -41.5t1 -44.5q1 -21 -12 -65t-15 -56q-8 -27 -10 -45q-3 -38 -31 -168q-6 -30 -6 -31q0 -33 19 -45q3 -3 16 -14.5t19 -16.5t17.5 -12.5t22.5 -11.5q32 -16 56 -37q30 -24 30 -63 q0 -13 -4 -29q-3 -12 -11 -20.5t-17 -8.5q-37 0 -45 21q-9 26 -31.5 50t-36.5 34t-51 35q-29 19 -43 -7q-5 -10 -15.5 -30.5t-18.5 -36.5t-13 -31q-17 -54 -76 -117q-9 -11 -21.5 -22.5t-21.5 -19.5t-24 -20.5t-23 -19.5q-30 -24 -65 -24q-25 0 -52 12q-10 5 -45 25 q-3 1 -14 7t-17 7q-62 5 -92 74q-49 104 -55 215q-5 58 -25 125q-1 4 -6 21t-6.5 24t-3.5 21zM190 352q0 -6 4 -44.5t3 -59.5q0 -50 51 -88q8 -5 39 -23q8 -3 16 -3q11 0 21 7q60 47 98 99q18 26 34 54t36.5 69l27.5 55q15 26 -10 51q-50 45 -59 55q-23 20 -43 47 q-9 15 -9 39q0 10 9.5 16.5t23.5 6.5q22 -2 47 -27q15 -15 39 -43q22 -22 41 -16q4 1 7 3t4.5 6.5l2 6t1.5 8.5l1 7q31 134 46 213q4 20 8 28q5 19 5 41q0 39 -16 84q-2 6 -12 36.5t-13.5 43t-7.5 36t-3 42.5q1 4 -4 24q-4 10 -13 36t-17.5 43.5t-19.5 33.5 q-7 10 -15.5 29.5t-12.5 25.5q-5 10 -23 37q-3 5 -11 5t-13 -5q-5 -6 -15.5 -21t-17.5 -22q-46 -41 -74 -119q-26 -79 -39 -110q-34 -65 -49 -174q-30 -186 -33 -221q-4 -39 -10 -56q-19 -59 -19 -138q0 -19 1 -40q-7 -70 -7 -78z" />
<glyph unicode="r" horiz-adv-x="776" d="M70 1165v17q0 32 2 48q2 21 8 77q1 8 7.5 29.5t4.5 35.5q-1 2 0 4.5t3 5.5t3 4q41 41 49 48q19 17 43 17q9 0 19 -3q12 -4 39 -4q22 3 48 3q15 0 32 -1q22 0 43 -6q12 -3 34 -9.5t33 -9.5q10 -3 25 -10q14 -6 55 -29q21 -10 25 -16q39 -58 49 -78q10 -31 24 -53 q25 -38 26 -101q0 -9 -1 -18q-7 -49 -7 -74q0 -8 1 -14q3 -22 -14 -45q-5 -6 -12.5 -19.5t-10.5 -17.5q-32 -62 -82 -96q-4 -3 -30 -24t-42 -29q-12 -8 -45.5 -35t-54.5 -37q-6 -6 -10 -8q-17 -14 -8 -35q6 -19 16 -35q10 -14 17.5 -28.5t16 -37.5t11.5 -30q11 -22 16 -37 q16 -32 17 -37q1 -16 12.5 -41.5t13.5 -36.5q1 -5 17 -26q27 -35 41 -58q37 -52 96 -108q4 -4 8 -4q19 -9 21 -15q4 -9 -4 -28q-4 -9 -11.5 -27t-11.5 -27q-5 -8 -14 -10t-17 4q-5 5 -17 14.5t-20 17t-14 15.5q-4 5 -84 97q-6 6 -14 17.5t-10 14.5t-8 12.5t-9 12.5 q-22 22 -37 59q-7 17 -20.5 45.5t-23.5 52t-15 46.5q-1 6 -16 26q-3 3 -8.5 2.5t-6.5 -4.5q-10 -25 -10 -32v-152q0 -37 -4 -119q-3 -21 -18 -39q-10 -20 -3 -34t6.5 -38t0.5 -40v-8q-9 -29 -35 -52q-45 4 -68 27q-14 14 -14 37q0 18 0.5 50.5t0.5 59t-1 50.5q0 16 0.5 46.5 t0.5 50t-1 47t-4 50.5q-2 18 -2 105q1 23 1 45q0 81 -9 153q-3 38 -3 72q0 88 -16 139q-6 22 -7.5 63t-2.5 48q0 20 -2 30q-8 34 -8 78zM219 963q0 -13 2 -19q5 -22 15.5 -68t15.5 -69q3 -11 13 -15q5 -2 11 -3l9 2q24 8 34 18q15 16 48.5 38.5t46.5 33.5q68 56 106 143 q4 9 7 18.5t5 17t3 18.5t2 17q0 3 1 7q0 6 -1 12q-1 12 -1 16.5t-1.5 18.5t-1.5 17t-2.5 18.5t-2.5 17.5q-1 3 -5 9.5t-5 9.5q-2 4 -13.5 27.5t-15.5 37.5q-14 45 -59 51q-29 3 -51 17q-7 5 -20 5q-6 0 -13 -1q-15 -3 -27 -6q-59 -21 -69 -68q-1 -3 -3 -8t-3 -8 q-23 -39 -23 -84v-103h-2v-118z" />
<glyph unicode="s" horiz-adv-x="720" d="M0 328q-2 9 -2 17q0 28 20 40q30 44 105 66q7 1 57 18q23 9 49 2q72 -22 99 -70q2 -2 5 -7t5 -7q16 -19 4 -37q-2 -5 -7.5 -17t-8.5 -18q-12 -15 -31 -2q-22 11 -27 27q-1 2 -4 6t-4 6q-13 31 -50 31q-9 0 -20 -2q-30 -6 -71 -43q-19 -18 -20 -46q0 -13 5 -28 q15 -63 72 -133q54 -63 131 -63q24 5 31 10q63 48 82 98q21 42 33 60q59 87 71 192q1 11 4.5 31.5t5 36.5t1.5 32q0 32 -27 88q-11 18 -43 64q-4 11 -10 14q-23 17 -56 68q-27 39 -53 65q-15 13 -43 60q-38 71 -82 123q-39 47 -86 155q-6 12 -6 27q-7 65 -23 102 q-12 29 5 56q10 10 10 22q1 7 2.5 12.5t5.5 12.5t6 10t8 11t7 9q24 39 69 72q24 17 49 17q18 0 37 -9q35 -13 47 -20q79 -36 152 -131q33 -44 33 -109q0 -3 -4 -7.5t-7 -4.5q-4 0 -16 8q-2 2 -6 10q-5 9 -11 18t-14.5 19t-13.5 15.5t-16.5 17.5t-14.5 16q-11 13 -26 25.5 t-24.5 19t-31.5 20t-28 17.5q-15 5 -21 2q-34 -13 -45 -22q-27 -16 -27 -43q0 -11 5 -25q5 -19 2 -39q-3 -13 -3 -26q0 -42 39 -72q1 -1 3.5 -3t3.5 -3q16 -9 30.5 -20.5t28.5 -28.5t21.5 -26t24 -32.5t20.5 -29.5q44 -52 65 -82q61 -86 86 -154q2 -5 8 -16.5t8 -16.5 q21 -43 23 -47q49 -129 63 -198q5 -27 5 -99q-2 -16 -2 -51q-1 -7 -3.5 -21.5t-3.5 -21.5q-4 -23 0 -35q4 -11 4 -21q0 -25 -26 -38q-26 -14 -45 -51q-4 -6 -11 -18.5t-12 -20t-12.5 -17t-15.5 -16.5q-2 -1 -8.5 -7.5t-10.5 -8.5q-9 -4 -19 -11.5t-16 -13t-16 -16.5t-14 -15 q-40 -35 -50 -45q-26 -26 -86 -30q-12 -2 -24.5 -2t-24.5 2q-23 1 -33.5 2.5t-27 8.5t-29.5 21q-29 16 -55.5 43t-42 49t-39.5 58q-32 55 -39 137q0 4 -1 13.5t-1 13.5z" />
<glyph unicode="t" horiz-adv-x="608" d="M-80 1323q0 14 8 21.5t21 3.5q32 -7 110 -7q19 0 27 -2q26 -6 52 -6l52 6h11q12 1 16 -1.5t10 -14.5q1 -4 5 -9.5t4 -6.5l4 -2q4 0 8 4v14q3 22 24 25q1 0 2 1t2 1h9q27 0 74.5 5t74.5 5h8q72 0 95 -6q10 -2 28 -2q22 -2 65 -6.5t64 -6.5q25 -2 54 -28q15 -15 15 -28 t-15 -30q-8 -8 -19 -8q-14 -4 -43 -4h-18q-22 6 -63 8.5t-60 7.5q-34 8 -56 -6q-51 -30 -63 -71q-1 -2 -2 -7.5t-2 -7.5q-7 -11 -12 -23t-8.5 -27.5t-5 -23.5t-4 -28t-3.5 -25q-2 -16 -7 -44t-7 -40q-4 -28 -4 -41q4 -36 -6 -57q-4 -10 -9 -51q-6 -63 -20 -113 q-10 -29 -4 -57q4 -14 4 -30q0 -20 -6 -44q-11 -40 -11 -90q1 -28 -2.5 -59t-10.5 -70.5t-9 -58.5q-1 -2 -3 -6.5t-3 -6.5q-1 -3 -4.5 -10.5t-3.5 -11.5q-4 -30 0 -45q6 -19 6 -39q0 -16 -4 -31q-9 -45 -9 -82q0 -22 3 -41q4 -24 -4 -36t-33 -21q-20 -9 -37 -9q-29 0 -49 25 q-13 17 -15 29q0 45 2 68q1 12 4.5 36.5t4.5 38.5q1 4 1 12t0.5 13.5t3 12t5.5 11.5q4 8 4 15q-6 21 0.5 57t5.5 49v11q-7 21 -7 55q0 23 3 51q4 56 16 176q0 4 1.5 17t0.5 20q0 24 11 61q4 11 8 37q2 7 5 23.5t5 23.5q0 3 2 8.5t2 8.5q2 49 6 143q3 80 21 156q3 12 11 36 t11 36q4 17 8 47q3 25 -22 28q-16 4 -23 4q-15 -2 -34 13q-12 12 -15 -2q-6 -14 -18 -11q-16 11 -17 11q-25 11 -41 -2q-22 -16 -43 -5q-29 13 -55 7t-45 10q-10 7 -20 10q-23 8 -23 33v6zM33 1300l12 -6l4 11q-2 0 -6 1t-6 1q-1 0 -1.5 -1.5l-1 -3t-1.5 -2.5z" />
<glyph unicode="u" horiz-adv-x="712" d="M8 629q3 19 12 37q13 38 9 57q0 12 2 18q8 22 12 47t6 58t4 47q11 78 13 86q15 44 10 61q-4 4 0 11q10 27 26 93.5t31 100.5q2 2 2 4q13 35 30 46.5t54 11.5q4 0 12 -4q6 -2 18.5 -7.5t18.5 -7.5q28 -14 23 -43q-4 -19 -13.5 -54t-13.5 -54q-8 -40 -8 -62q0 -51 -20 -80 q-18 -26 -18 -57q0 -12 3 -25t3.5 -28t-0.5 -24t-3.5 -27t-3.5 -25q-5 -61 -5 -105q0 -33 3 -55q2 -6 8.5 -9t9.5 1q44 48 52 66q23 47 26 51q7 12 15 35q15 44 32 65q4 4 7 13.5t4 11.5q6 18 11 28t15.5 21t26.5 16q15 6 12 23q-2 12 -2 24q0 36 21 64q1 1 6 28q8 56 30 84 q7 14 7 15q0 16 10.5 44.5t11.5 43.5q2 31 49 47q4 2 8 2q10 0 21 -10q16 -14 16 -31v-8l-28 -168q0 -6 -2 -10q-4 -9 -7 -19.5t-4.5 -18t-2.5 -21t-1 -19v-22v-19.5q-1 -8 -3 -25.5t-3 -25.5q-5 -44 -16 -115q-8 -41 -4 -55q6 -13 -4 -47q-6 -35 -6 -52q0 -8 1 -12v-8 q-3 -15 -3 -37q0 -37 8 -94q2 -18 3 -39t1.5 -46.5t1.5 -39.5q0 -13 -2 -19q-3 -10 6 -36q5 -12 20 -56q10 -26 -16 -45q-38 -27 -43 -30q-8 -5 -16 -5q-10 0 -19 9q-2 2 -5.5 7.5t-6 9t-6.5 5.5q-15 13 -15 45q1 11 2 34t2 34v12q0 38 -5 98q-6 70 -7 97q-1 41 -1 75 q0 85 7 127q2 8 2 25q-1 5 1 14t1 17t-8 14q-14 -7 -28 -39q-15 -27 -27 -57q-40 -94 -109 -152q-9 -6 -28 -30q-41 -58 -95 -76q-7 -2 -14.5 -5.5t-17.5 -9t-15 -8.5q-15 -5 -28 -5q-20 0 -35 13q-20 13 -23 35q-8 50 -8 100q0 25 2 50z" />
<glyph unicode="v" horiz-adv-x="755" d="M96 1057v59q-1 17 -1 35q0 42 5 90v33q0 13 4 33q4 12 17 16q18 6 41 6q32 0 41 -29q20 -62 22 -75q22 -97 25 -183q0 -16 2 -24q3 -27 6 -82t6 -82q6 -93 6 -94q0 -17 1 -49t1 -47q0 -9 -2 -13q-2 -8 -3 -17.5t-1 -16.5t2 -18.5t3 -16.5t4 -18t4 -17q8 -25 8 -46 q0 -10 -2 -18q-8 -30 4 -49q4 -6 0 -22q0 -9 4 -25q0 -2 3.5 -2.5t4.5 0.5q6 3 6 10l25 72q37 129 88 231q27 56 41 74q7 8 16 33q6 22 16 44.5t24 50.5t20 42q15 38 30 78q22 51 35 67q4 4 8 17q4 32 25 45q4 4 8 16q8 51 43 109q32 49 43 98q3 16 10 33q4 8 15 12q3 1 7 1 q8 0 19 -4q17 -6 21 -15q6 -6 6 -11t-4 -10q-13 -31 -21 -39q-19 -17 -26 -43q-4 -14 -11 -28.5t-16 -32.5t-14 -29q-3 -10 -17 -43q-15 -30 -22 -51q-32 -72 -35 -80q-23 -64 -49 -112q-8 -15 -20.5 -45.5t-14.5 -34.5q-12 -28 -22 -43q-13 -19 -15 -35q0 -8 -14 -31 q-1 -1 -7 -10t-8 -12.5t-6 -11t-5.5 -14t-2.5 -13.5q0 -9 -8 -25q-19 -34 -39 -98q-9 -27 -18 -51q-6 -19 -18.5 -58t-18.5 -59q0 -2 -1 -5t-1 -5q-8 -55 -27 -82q-1 -2 -2 -6.5t-2 -6.5q-2 -22 -7.5 -45.5t-14.5 -53.5t-13 -44q-2 -14 -10 -33q-2 -7 -6 -20.5t-6 -20.5 q0 -1 -3 -8t-4 -8.5t-4 -6.5t-7 -7t-9 -4q-3 -1 -5.5 -4.5t-5 -9t-3.5 -7.5q-11 -14 -26 -14q-5 0 -11 2q-26 7 -29 28q-2 10 -2 35q1 13 1 28q0 53 -9 120q-1 16 -23 155q-4 20 -4 31q-2 35 -6 103.5t-6 103.5q-2 30 -7 92t-7 92q-1 12 -2 38t-2 38q-2 18 -2.5 51t-2.5 51 q-6 32 -10 101z" />
<glyph unicode="w" horiz-adv-x="1163" d="M23 1006q-4 38 -4 66q0 34 6 54q7 24 28 27q13 0 25 6q19 14 43 0q30 -15 35 -39q8 -43 9 -69q0 -14 -3 -23q-1 -12 0 -17t5 -16t5 -16q2 -7 7.5 -22t8.5 -24t5.5 -21.5t3.5 -24.5q0 -5 4 -13q7 -12 12.5 -27t7.5 -23t6.5 -30t5.5 -26q3 -18 9 -33q1 -4 5 -15t4.5 -14.5 t2 -15t-1.5 -16.5q-3 -3 2 -12q8 -17 20 -19q14 0 17 23q2 6 2 20q0 46 22 70q5 5 9 18q1 6 2 17.5t2 17.5q7 21 -2 39q-12 21 4 41q13 16 10 43q0 4 4 20q4 22 8 31q1 8 4 22t4 19q5 25 5 29v8q0 33 22 51q13 13 6 23q-5 15 2 32l3 6t3 7t0 6q-2 16 2 31.5t11 34t10 28.5 q7 32 14 82q3 19 23 29q11 5 22 5q12 0 25 -6q24 -12 27 -38q10 -68 12 -82q0 -5 1 -16.5t1 -16.5q-1 -5 4 -29q20 -47 25 -92q8 -75 28 -119q5 -10 15 -55q2 -10 8 -34t9.5 -41.5t4.5 -35.5q0 -12 8 -36q16 -36 16 -60q0 -5 -1 -10q0 -3 2 -12t2 -13q4 -15 8 -49 q6 -29 20 -149q2 -18 17 -111q2 -22 22 -119q0 -8 8 -8q7 0 11 4q12 12 12 21q2 7 7.5 18.5t8.5 22t2 20.5q0 6 9 19q18 18 18 53q0 32 21 59q12 15 12 39q0 15 4 21q12 18 20 55.5t11 46.5q2 5 5.5 15t6 16t7.5 14t11 14q7 7 7 19q-3 28 14 55q12 21 4 39q-7 10 2 23 q6 17 18.5 50.5t18.5 51.5q6 12 6 29q2 8 4 25.5t2 19.5q8 54 27 73q2 11 7.5 32.5t6.5 27.5q2 12 5 33.5t5 33.5q5 27 37 27q2 -2 8 -2q29 -3 35 -11q4 -5 4 -19q0 -8 -2 -19q-4 -26 -8 -41q-4 -14 -18 -12q-6 1 -8 -1.5t1 -7.5q0 -3 3 -8.5t4 -7.5v-10q-4 -4 -7 -9 t-4.5 -8.5t-2.5 -9.5t-1 -9v-10.5v-8.5q0 -3 -2.5 -11t-3.5 -10q-1 -6 -4 -18.5t-4 -18.5q0 -27 -14 -47q-10 -15 -7 -27q2 -17 -6 -45q-9 -24 -12 -49q-6 -50 -39 -86q-8 -8 -2 -20q0 -1 1 -3t1 -3q2 -9 0 -18t-6.5 -19.5t-5.5 -16.5q-1 -4 -2 -11.5t-2 -12.5t-4 -11 t-9 -10q-4 -2 -8.5 -15t-13.5 -15q-2 -2 -2.5 -9t0.5 -12q10 -33 -10 -59q-4 -8 -4 -13q-3 -17 -18.5 -62t-16.5 -71q0 -6 -8 -22q-21 -44 -33 -90q-4 -13 -8.5 -26.5t-11 -30.5t-9.5 -27q-34 -108 -39 -154q-3 -36 -24 -63q-4 -4 -10 -16t-9 -17q-5 -8 -14 -8h-3 q-12 2 -18 12l-6 18q0 11 -2 13q-8 3 -13 8.5t-6 10.5t-2.5 14t-2.5 12q-8 28 -8 49q0 9 1 16q3 11 0 21q-11 24 -18.5 71.5t-9.5 55.5q-1 7 -1.5 33t-6.5 40q-2 5 -13 70q-16 111 -22 172q-4 43 -10 62q-1 4 -3.5 12t-3.5 12q-7 17 -7 33.5t7 32.5q10 24 -10 41 q-14 7 -18 30q-2 10 -11.5 54.5t-13.5 68.5q-4 38 -10.5 78.5t-16.5 92.5t-14 77q0 7 -6 10q-1 2 -5 2t-5 -2q-8 -8 -8 -14q-15 -62 -27 -123q-11 -58 -27 -92q-3 -5 -4 -12t-1 -15.5t-1 -13.5q0 -4 1 -12.5t1 -12.5q-2 -49 -20 -118q-5 -21 -10.5 -61.5t-6.5 -47.5 q-5 -16 -8 -18q-24 -13 -24 -46q0 -9 2 -20q5 -19 5 -38q0 -22 -7 -44q-4 -15 -9.5 -47t-9.5 -47q-8 -35 -20 -51q-4 -4 -4 -11q-2 -15 -15 -39t-16 -36q0 -2 -12 -25t-39 -20q-29 0 -39 26q-4 7 -8 29q-2 7 -6.5 21.5t-6.5 21.5q-5 18 -4 20q2 15 0 31t-6.5 35.5t-5.5 30.5 q-3 14 -10.5 45t-10.5 49q-10 57 -10 70q0 30 -12 92q-1 6 -5 41t-11 53q5 26 -15 53q2 14 -0.5 27.5t-8 30t-7.5 24.5l-1 8q0 8 1 8v13q-1 23 -5 59q-6 46 -7 62zM100 922q1 -1 2 -3.5t2 -3.5h5q0 6 -3 9zM264 602q1 -1 1.5 -3.5t1 -3.5t1.5 -1q3 0 11 4q-1 1 -2 3 q-2 3 -3 3q-6 0 -10 -2zM367 799h2l2 2q0 2 -4 2v-4z" />
<glyph unicode="x" horiz-adv-x="753" d="M-20 186q8 25 24 50q32 44 70 106q2 2 24 53q5 18 13.5 34t24 41.5t18.5 31.5q6 10 14 30q32 76 49 97q8 12 21.5 35.5t15.5 27.5q33 64 61 99q15 19 15 40q0 11 -4 23q-37 97 -58 160q-4 13 -14.5 34t-13.5 29q-11 34 -11 68v10q0 13 7 37q3 20 24 27q4 2 12 2 q13 -2 29 -16t16 -25q0 -13 8 -34.5t9 -33.5q6 -29 16 -63q2 -6 5 -18.5t5 -18.5q6 -18 15 -33q3 -10 10 -25q15 -28 21 -28t26 26q13 18 39.5 53t40.5 52q25 35 29 41q66 102 116 164q3 4 13 24q2 2 14 27q9 14 25 14q2 -1 3 -1q18 -2 25 -19q15 -33 39 -80q6 -13 6 -23 q0 -8 -4 -14q-25 -46 -45 -76q-7 -10 -47 -55q-23 -32 -24 -43q0 -1 -15 -23q-29 -37 -67 -108q-10 -23 -21 -37q-10 -17 -30 -47t-27 -41q-2 -2 -13 -25q-10 -20 -4 -37q4 -11 17 -49.5t22 -58.5q7 -16 20.5 -50.5t20.5 -50.5q2 -6 2.5 -16.5t1.5 -13.5q5 -37 6 -39 q5 -11 15.5 -39t20 -47t22.5 -35q4 -6 8 -18q6 -12 -2 -23q-6 -6 -14 -18q-12 -19 -18.5 -21t-28.5 4q-16 6 -19 19q-6 29 -17 64t-19.5 58.5t-23.5 63.5t-22 59q-5 14 -47 111q0 4 -4 8q-3 6 -9 6.5t-11 -6.5q-6 -8 -19.5 -26.5t-23 -32.5t-15.5 -29q-10 -23 -29 -39 q-19 -19 -22 -26q-32 -52 -51 -86q-15 -29 -56 -66q-16 -12 -26 -22q-39 -32 -76 -97q-6 -12 -16.5 -22t-16 -14t-23 -14.5t-20.5 -12.5q-10 0 -14 4q-21 24 -21 47q0 8 3 16zM317 625q0 -2 5 -7q3 0 6 3q10 6 17.5 15.5t15.5 23.5t12 20v4q0 2 -4 6h-7q-34 -38 -45 -65z " />
<glyph unicode="y" horiz-adv-x="593" d="M6 1294q-6 10 -6 19.5t6 17.5q17 28 49 25q3 0 9 -0.5t10.5 -0.5t7.5 1q9 5 18 5.5t23 -2.5t18 -3q82 -8 109 -88q0 -7 4 -11q10 -15 17 -32.5t13 -40.5t11 -35q5 -14 7.5 -42.5t6.5 -41.5q3 -10 8.5 -29.5t8.5 -29.5l6 -7q10 5 12 7q2 3 9 15t9 19q28 74 74 152 q25 44 56 104q22 46 22 95v18q0 26 29 26q6 0 14 -1q25 -6 35 -29q2 -7 4 -22t2 -17q-2 -41 -37 -113q-14 -26 -43.5 -78.5t-44.5 -78.5q-1 -2 -8 -23q-2 -4 -4 -13t-4 -13q-14 -27 -39 -81t-39 -81q-12 -23 -21 -35q-29 -47 -34 -88q-2 -21 -5.5 -44.5t-9 -53.5t-8.5 -46 q0 -3 -1 -10.5t-1 -11.5q-10 -143 -10 -170q0 -26 -1 -76t-1 -76q5 -79 8 -88q5 -23 -23 -41q-1 0 -4 -1t-4 -1q-5 -1 -16 -6.5t-15.5 -5.5t-15.5 4q-29 19 -29 47q0 4 2 4q4 23 5.5 51t1 50.5t0.5 50.5q0 16 -0.5 46.5t-0.5 49.5t1 45.5t4 48.5q2 4 2 13q-3 19 -4 39t1 43 t3 36.5t5 42.5t5 39q2 16 2 31q0 37 -12 70q-9 22 -26 64.5t-31.5 76.5t-30.5 64q-39 85 -52 108q-13 24 -29.5 71t-27.5 68z" />
<glyph unicode="z" horiz-adv-x="608" d="M12 217q-2 10 -2 19q0 19 10 32q11 19 34 57t34 56q60 102 94 184q15 36 46.5 103t35.5 75q44 87 68 131q8 16 18 33t22 37.5t19 32.5q7 11 21 43q4 12 -1 20.5t-16 6.5q-50 -8 -73 -21q-9 -6 -39 -16q-23 -6 -39 15.5t-8 49.5q4 16 14 19q12 3 38 13t46 15t39 4 q9 0 100 11q26 0 33 -9q10 -12 35 -12q15 0 28.5 -13t16.5 -30q1 -3 1 -7q0 -6 -3 -15q-30 -73 -37 -86q-16 -36 -49.5 -104.5t-48.5 -104.5q-11 -26 -24.5 -54t-31 -62.5t-26.5 -51.5q-1 -2 -3.5 -6.5t-3.5 -6.5q-12 -30 -26.5 -59.5t-36 -70.5t-29.5 -56q-4 -8 -9.5 -16.5 t-12.5 -19t-10 -15.5q-9 -13 -5 -21q2 -5 17 -10h8q10 3 34.5 7.5t44 10.5t36.5 17q10 5 22 8q48 12 88 39q29 17 51 -14q2 -3 5.5 -10.5t5.5 -10.5q8 -16 -2 -32q-1 -1 -3 -3.5t-3 -3.5q-9 -33 -33 -33q-7 0 -15 3q-9 3 -22 0q-18 -6 -76 -29q-59 -26 -84 -31 q-13 -2 -42 -8.5t-51.5 -10t-43.5 -3.5q-17 0 -37 -8q-33 -12 -84 -15h-4q-15 0 -21 7q-8 8 -10 30z" />
<glyph unicode="{" horiz-adv-x="393" d="M8 90q8 171 70 344q16 48 47 182q16 70 -53 117q-43 29 -43 67.5t43 73.5q93 77 65 205q-33 134 -88 234q-6 10 -16 51q-16 116 12 211q22 73 105 149q63 56 135 76q8 2 15.5 2.5t13 0.5t14 -2t12.5 -3t12.5 -5t11.5 -5t13 -6l12 -6q7 -4 11 -30.5t-1 -35.5 q-8 -15 -22.5 -16t-26.5 6q-8 0 -14 2q-35 13 -51.5 6t-30.5 -41q-10 -26 -31 -57q-18 -31 -22.5 -67.5t-0.5 -65t15 -70.5q36 -124 53 -209q8 -29 0 -72q-20 -106 -32 -159q-9 -29 -33 -80q-29 -56 4 -99q77 -107 51 -223q-19 -92 -59 -174q-39 -77 -48.5 -173t1.5 -179 q5 -53 30 -131q1 -5 2.5 -16t4 -19.5t6.5 -13.5q7 -7 47 -17q63 -12 90 -14q28 -3 42 -12t11 -21q-7 -33 -53 -33q-19 0 -51 -4q-154 -22 -226 119q-39 80 -47 213z" />
<glyph unicode="|" horiz-adv-x="651" d="M216 130.5q2 21.5 7 21.5h-4q3 69 9.5 209.5t9.5 209.5q3 60 9 180.5t9 180.5q2 31 5 87.5t6 103t7 87.5q13 170 21 226q7 53 39.5 64.5t62 -17t27.5 -72.5q-3 -82 -27 -235.5t-28 -192.5q-3 -24 -3 -52.5t1.5 -63t1.5 -52.5v-166q2 -102 10 -291q3 -63 0 -125 q-5 -116 -19 -262q-1 -8 0.5 -19t1 -15.5t-5.5 -11t-18 -13.5q-18 -9 -40 -7t-40 13q-10 7 -19.5 33.5t-14.5 60t-7.5 65.5t-0.5 53.5z" />
<glyph unicode="}" horiz-adv-x="393" d="M-15 -170q-3 26 3 35q7 15 20.5 16t26.5 -6q10 0 14 -2q35 -13 52 -6t32 41q7 17 29 57q18 31 23 67t0.5 66t-15.5 70q-41 154 -53 209q-6 24 2 72q12 79 33 159q8 38 32 80q28 54 -6 98q-75 104 -51 224q19 92 59 174q39 77 48.5 173t-1.5 179q-4 45 -28 131 q-2 5 -5.5 23.5t-9.5 25.5q-7 7 -47 17q-58 12 -90 14q-26 3 -41 12t-12 21q7 32 53 32q11 0 51 5q154 21 226 -119q41 -80 49 -213q-12 -181 -70 -344q-10 -26 -18.5 -56.5t-17 -69t-13.5 -57.5q-16 -70 53 -116q44 -29 44 -67.5t-42 -74.5q-95 -76 -67 -204 q33 -134 88 -234q12 -22 16 -51q16 -114 -12 -211q-20 -77 -104 -150q-62 -55 -136 -75l-12 -2t-10.5 -1t-11 1t-10.5 1.5t-10.5 3t-9.5 3.5t-10.5 4t-9.5 4t-10.5 5t-9.5 5q-8 5 -11 31z" />
<glyph unicode="~" horiz-adv-x="1042" d="M139 606q12 48 62 89.5t104 47.5q45 5 57 5l3 6q8 -2 38 -6.5t49 -9.5t37 -13q80 -37 216 -18q25 2 59 51q24 38 34.5 44t37.5 -5q31 -17 37 -39.5t-11 -57.5q-11 -23 -28 -40.5t-47 -39.5t-39 -30q-10 -5 -13 -2q-53 9 -95.5 5t-96.5 -1t-94 22q-127 59 -222 -55 q-27 -34 -63 -20q-35 18 -25 67z" />
<glyph unicode="&#xa3;" horiz-adv-x="825" d="M-18 10q-8 31 10 56q21 31 59 47q49 22 72 73q41 86 61 154.5t15 142.5q-3 34 6 135q2 31 -6.5 37.5t-40.5 -0.5q-5 0 -13 -4q-33 -16 -51 21q-9 19 -2.5 36t25.5 25q25 7 45 10q36 3 33 37q-5 26 -2 73t4.5 72.5t9.5 72t12.5 71t14 70.5t14.5 71q16 80 56.5 121 t119.5 45q16 1 33 -3t38 -11t33 -10q6 -1 14.5 -7.5t10.5 -7.5q51 -29 67 -61t9 -90q-10 -43 -13 -51q-9 -21 -28 -37q-27 -19 -47 -2q-21 18 -11 47q13 50 13 69q1 26 -24.5 48.5t-51.5 19.5q-9 0 -23 -14q-57 -70 -69 -156q-10 -62 -27 -223h4v-19v-75q12 0 35 -1t35 -1 q21 0 32 -5.5t11 -25.5q0 -17 -16.5 -36.5t-30.5 -21.5q-50 -6 -56.5 -14.5t-3.5 -58.5q11 -154 11 -256q0 -36 -15 -94q-6 -20 -32 -84q-5 -11 -2 -19t14 -4q33 10 71.5 10.5t62.5 -3t70 -14t64 -13.5q66 -13 119 -2q37 6 76 6q34 0 39 -29q2 -15 -11 -34.5t-26 -22.5 q-56 -8 -75.5 -10.5t-65 -5.5t-79.5 3t-67 19q-94 34 -236 -8q-1 0 -213 -68q-12 -4 -36 -8q-41 -5 -45 18z" />
<glyph unicode="&#xad;" d="M92 786q9 29 58 29h266q39 0 90 -14q37 -10 24 -53q-6 -18 -16.5 -22t-32.5 3q-48 10 -88 10q-3 0 -241 -18q-38 -3 -54 14t-6 51z" />
<glyph unicode="&#x2000;" horiz-adv-x="933" />
<glyph unicode="&#x2001;" horiz-adv-x="1866" />
<glyph unicode="&#x2002;" horiz-adv-x="933" />
<glyph unicode="&#x2003;" horiz-adv-x="1866" />
<glyph unicode="&#x2004;" horiz-adv-x="622" />
<glyph unicode="&#x2005;" horiz-adv-x="466" />
<glyph unicode="&#x2006;" horiz-adv-x="311" />
<glyph unicode="&#x2007;" horiz-adv-x="311" />
<glyph unicode="&#x2008;" horiz-adv-x="233" />
<glyph unicode="&#x2009;" horiz-adv-x="373" />
<glyph unicode="&#x200a;" horiz-adv-x="103" />
<glyph unicode="&#x2010;" d="M92 786q9 29 58 29h266q39 0 90 -14q37 -10 24 -53q-6 -18 -16.5 -22t-32.5 3q-48 10 -88 10q-3 0 -241 -18q-38 -3 -54 14t-6 51z" />
<glyph unicode="&#x2011;" d="M92 786q9 29 58 29h266q39 0 90 -14q37 -10 24 -53q-6 -18 -16.5 -22t-32.5 3q-48 10 -88 10q-3 0 -241 -18q-38 -3 -54 14t-6 51z" />
<glyph unicode="&#x2012;" d="M92 786q9 29 58 29h266q39 0 90 -14q37 -10 24 -53q-6 -18 -16.5 -22t-32.5 3q-48 10 -88 10q-3 0 -241 -18q-38 -3 -54 14t-6 51z" />
<glyph unicode="&#x2013;" horiz-adv-x="1182" d="M97 786q21 29 133 29h612q90 0 207 -14q85 -10 55 -53q-14 -18 -38 -22t-74 3q-111 10 -203 10q-7 0 -554 -18q-88 -3 -124.5 14t-13.5 51z" />
<glyph unicode="&#x2014;" horiz-adv-x="2205" d="M106 786q41 29 266 29h1224q179 0 414 -14q170 -10 110 -53q-27 -18 -75.5 -22t-149.5 3q-221 10 -405 10q-14 0 -1108 -18q-175 -3 -248.5 14t-27.5 51z" />
<glyph unicode="&#x202f;" horiz-adv-x="373" />
<glyph unicode="&#x205f;" horiz-adv-x="466" />
<glyph unicode="&#x25fc;" horiz-adv-x="1331" d="M0 0v1331h1331v-1331h-1331z" />
</font>
</defs>
</svg>
